<?xml version="1.0" standalone="no"?>
<!DOCTYPE svg PUBLIC "-//W3C//DTD SVG 1.1//EN" "http://www.w3.org/Graphics/SVG/1.1/DTD/svg11.dtd" >
<svg xmlns="http://www.w3.org/2000/svg" xmlns:xlink="http://www.w3.org/1999/xlink" version="1.1">
<metadata></metadata>
<defs>
<font id="artarumiangovazd_italic" horiz-adv-x="682" >
<font-face units-per-em="2048" ascent="1638" descent="-410" />
<missing-glyph horiz-adv-x="575" />
<glyph horiz-adv-x="0" />
<glyph unicode="&#xd;" horiz-adv-x="575" />
<glyph unicode=" "  horiz-adv-x="575" />
<glyph unicode="&#x09;" horiz-adv-x="575" />
<glyph unicode="&#xa0;" horiz-adv-x="575" />
<glyph unicode="!" horiz-adv-x="705" d="M131 109q-1 52 26 128q33 92 74 93q49 1 83 -59q15 -27 16 -62q1 -52 -37 -128q-36 -72 -74 -73q-39 -1 -64 32q-23 29 -24 69zM252 471q-1 27 70 150l87 152q38 65 119 204q143 244 185 305q21 6 37 6q81 0 139 -80l-417 -623q-31 -49 -83 -130q18 -3 19 -23 q0 -10 -23 -39.5t-43 -30.5q-21 -1 -56 40q-33 38 -34 69z" />
<glyph unicode="&#x22;" horiz-adv-x="618" d="M221 1010v237h150v-237l-31 -271h-88zM485 1010v237h152v-237l-31 -271h-88z" />
<glyph unicode="#" horiz-adv-x="1992" d="M-30 367q0 54 86 144q28 29 73 35q236 32 403 63q352 64 454 126q160 97 160 189q0 87 -68 136q-64 46 -169 46q-92 0 -190 -37q-18 -7 -18 -18t22 -15q40 -2 107 -7q18 -2 19 -11q0 -9 -25 -12q-77 0 -305 -12q-47 -2 -49 51q-1 33 40 105q49 86 113 124q159 94 358 94 q149 0 244 -59q104 -64 105 -181q3 -254 -144 -388q-236 -218 -900 -256q285 -100 619 -272q259 -133 327 -185q42 -32 42 -148q0 -124 -56 -127q-210 123 -1240 599q-8 4 -8 16zM1170 376q0 20 5 43q12 51 17 63q11 28 38 53q11 10 50 3q40 -7 40 -18q1 -21 -63 -90 q-4 -12 -4 -23q0 -29 52 -61q28 -17 51 -17q38 0 80 39q35 33 92 164q1 2 -115 43q-126 45 -157 85l36 84q26 50 65 58q20 5 71 2q-42 -23 -76 -48q33 -73 244 -88q18 52 62 146q-20 13 -38 32q24 62 73 78q13 4 56 4q-8 0 68 4q61 3 95 0q49 -5 49 -21q0 -37 -21 -76 q-23 -42 -55 -54q-7 -3 -18 -3q-28 0 -83 20q-48 18 -50 16q-17 -32 -90 -158q-1 -1 134 -29q148 -30 186 -59l-24 -64q-21 -54 -40 -64q-35 -1 -84 -8q33 23 60 44q-29 14 -126.5 32t-147.5 18q-15 0 -22 -2q-6 -37 -72 -180q-52 -115 -180 -115q-19 0 -35 4q-40 9 -77 47 q-45 44 -46 96z" />
<glyph unicode="$" horiz-adv-x="961" d="M90 322q-1 80 94 151q35 -32 58 -49q21 -13 69 -25l84 250q-126 3 -168 57q-24 31 -24 85q0 34 18 81q42 107 147 156q73 34 191 57q8 21 24 64q15 35 40 82q66 10 67 -12q0 -4 -7 -22l-42 -93l129 14q27 68 30 75q19 42 44 68t61 27q18 0 19 -14q0 8 -64 -152 q94 -1 139 -22q42 -19 43 -82q1 -79 -71 -113q-31 -14 -121 -37q-12 0 -12 9q0 3 4 8q37 19 37 33q0 22 -93 22l-79 -215q220 -24 221 -182q1 -164 -169 -257q-81 -45 -212 -75q-18 -68 -62 -199q-11 -25 -26 -26q-33 0 -35 90q-1 47 27 121q-38 -2 -127 -4 q-23 -68 -38 -132q-16 -69 -24 -69q-14 0 -28 47q-12 40 -13 61q-1 17 25 109l-76 24q-51 18 -67 39q-13 16 -13 50zM322 815q0 -38 116 -45l56 152q-172 -45 -172 -107zM385 389q11 -1 43 -2q46 -1 90 10l78 234l-127 10zM510 760l123 -19l72 203l-132 -10zM610 418 q71 25 103 43q66 36 67 78q1 37 -36 58q-14 7 -70 24z" />
<glyph unicode="%" horiz-adv-x="1409" d="M215 41q-1 45 73 135q80 97 281 309q174 184 335 321q94 76 278 232q74 67 104 83t31 -31q1 -57 -197 -244q-279 -263 -508 -527q-115 -133 -244 -314q-21 -29 -41 -58q-33 -41 -53 -43q-23 0 -43 58q-15 47 -16 79zM305 809q-1 86 51 175q49 85 126 141q85 62 175 63 q42 1 74 -51q60 -15 60 -99q0 -91 -51 -190q-47 -93 -119 -157q-76 -67 -164 -68q-74 -1 -115 58q-36 51 -37 128zM414 819q0 -70 61 -71q127 -2 216 168q36 69 36 116q0 54 -31 55q-10 -1 -39 -8q-34 -8 -51 2l-6 4q-1 1 -3 1.5t-3 0.5q-23 0 -79 -61q-45 -51 -65 -83 q-36 -60 -36 -124zM754 162q-1 76 53 163q48 78 115 130q74 57 149 57q41 0 72 -45q59 -20 59 -117q0 -186 -189 -335q-73 -57 -118 -58q-61 -1 -104 75q-36 64 -37 130zM840 156q0 -117 83 -78q92 43 164 204q28 63 29 99q1 46 -31 47q-38 1 -107 -52q-58 -45 -90 -85 q-48 -60 -48 -135z" />
<glyph unicode="&#x26;" horiz-adv-x="936" d="M0 219q0 159 121 340q333 500 506 680q83 86 110 84q75 -6 78 -39q0 -56 -194 -316q-187 -252 -373 -452q-116 -125 -116 -196q0 -31 7 -84q48 -33 102 -33q75 0 217 61q0 121 108 268q116 157 220 158q61 1 61 -47q0 -71 -101 -185q-61 -65 -123 -129q-41 -52 -41 -80 q0 -49 112 -49q91 0 136 24q19 10 114 91v-73q-63 -94 -125 -187q-56 -65 -199 -65q-187 0 -176 206q-147 -204 -336 -204q-108 0 -108 227z" />
<glyph unicode="'" horiz-adv-x="449" d="M270 1010v237h148v-237l-25 -269h-92z" />
<glyph unicode="(" d="M211 453q-2 318 220 629q55 76 134 163q112 121 158 123q26 1 27 -55q1 -52 -84 -146q-135 -149 -215 -339q-83 -199 -84 -392q0 -84 19 -166t50 -123q17 27 27 29q11 0 12 -67q1 -48 -26 -80q-31 -34 -77 -22q-85 22 -136 232q-24 100 -25 214z" />
<glyph unicode=")" d="M96 70q0 20 13 41q166 262 251 507q76 219 78 396q2 157 -41 180q-8 -18 -18 -20q-3 0 -5 9q0 11 1 17q0 48 23 87q28 45 73 46q70 2 114 -141q21 -68 21 -160q0 -174 -65 -372q-32 -96 -82 -205q-76 -165 -130 -256q-111 -190 -179 -191q-54 -1 -54 62z" />
<glyph unicode="*" horiz-adv-x="662" d="M-74 1100q0 19 33 66t51 48q34 1 228 -124q0 53 -24 137t-24 104q0 18 12 24.5t40 6.5q105 0 106 -70q0 -12 -14 -82q-8 -42 -17 -123q39 20 103.5 105.5t97.5 85.5q30 0 69 -95q15 -38 15 -50q0 -34 -42 -49q-36 -9 -72 -17q-75 -19 -123 -45q76 -14 206 -50 q24 -10 25 -32q1 -28 -31 -72t-59 -45q7 0 -180 117q15 -68 32 -195q2 -58 -55 -59q-112 -1 -113 53q14 41 30 93q9 35 16 108q-44 -34 -133 -101q-40 -30 -99 -32q-14 0 -45 30t-31 56q0 23 92 49q104 30 173 64q-44 17 -123 35q-91 20 -123 30q-21 7 -21 29z" />
<glyph unicode="+" horiz-adv-x="1366" d="M170 547v158h469v471h158v-471h471v-158h-471v-465h-158v465h-469z" />
<glyph unicode="," d="M133 18q0 63 103 149q40 33 65 34q36 1 37 -45q1 -51 -62 -139q-58 -80 -108 -113q-33 -22 -33 -6q0 7 5 13.5t21 28t23 35.5q-51 19 -51 43z" />
<glyph unicode="-" horiz-adv-x="1044" d="M242 455q0 20 53 75q65 67 246 68q33 0 147 -10q19 4 41 8q5 0 53 -8q9 -1 26 -4q10 -2 19 -5.5t9 -7.5q0 -9 -54 -55q-49 -42 -108 -59q-38 -11 -122 -19q-74 -7 -196 -8q-112 -1 -114 25z" />
<glyph unicode="." d="M117 45q0 18 21 64q54 119 122 120q42 1 43 -51q1 -32 -29 -85q-55 -95 -116 -97q-41 -1 -41 49z" />
<glyph unicode="/" horiz-adv-x="20" d="M-217 -53q-12 30 11 140q52 249 249 717l238 559q51 111 83 124q21 8 30 -12q20 -63 -46 -260q-33 -97 -79 -220l-119 -318q-76 -203 -123 -369l-95 -400q-14 -59 -30 -66q-23 -8 -63 29t-56 76z" />
<glyph unicode="0" horiz-adv-x="897" d="M12 362q-1 156 91 336q80 156 204 286q130 136 268 208q107 56 192 56q25 0 48 -5q65 -13 72 -82q89 -40 90 -209q1 -137 -57 -304q-121 -351 -390 -542q-145 -103 -241 -104q-159 -1 -239 169q-37 80 -38 191zM152 295q-1 -124 84 -125q113 -1 327 195q193 177 279 412 q39 107 39 181q0 101 -74 101q-47 0 -150 -94l35 73q-59 -30 -105 -59.5t-104 -82t-121 -132.5q-209 -262 -210 -469z" />
<glyph unicode="1" horiz-adv-x="555" d="M66 176q-1 96 71 301q66 189 190 411q54 97 111 193q-117 -48 -237 -125v82q137 120 249 194q46 30 111 66q54 -80 55 -153q1 -63 -64 -201q-36 -77 -73 -158q-232 -511 -235 -661q0 -11 7 -43.5t7 -46.5q1 -29 -17 -31q-16 -2 -46 12q-128 60 -129 160z" />
<glyph unicode="2" horiz-adv-x="897" d="M10 207q-2 108 191 282q91 81 196 142l346 200q156 108 156 183q0 58 -86 59q-59 1 -157 -24q-211 -54 -345 -170q195 -8 195 -50q0 -12 -8 -17q-4 -2 -24 -7q-15 -1 -40 -6q-66 -15 -198 -41q-39 0 -39 49q0 114 68 241q33 61 67 85q89 63 321 108q108 21 197 21 q76 0 97 -47q49 -109 50 -226q1 -168 -166 -291q-102 -75 -286 -189q-213 -133 -289 -185q-33 -21 -96 -67q-23 -20 -49 -54q137 12 424 73q9 2 126 33q91 25 117 25q24 0 25 -25q1 -20 -11 -57q-24 -78 -77 -127q-132 -123 -510 -123q-97 0 -131 31q-21 19 -43 82 q-20 60 -21 92z" />
<glyph unicode="3" horiz-adv-x="1044" d="M-49 127q-1 75 81 150q33 30 56 30q13 0 14 -10q0 -7 -10 -27q-8 -8 -10 -22q0 -57 166 -58q193 -2 362 81q161 79 162 153q1 82 -148 108q-60 10 -208 11q-56 0 -118 -11q-27 -4 -54 -10q-15 0 -15 25q0 43 20 98q22 61 52 82q15 11 164 38l184 34q88 18 209 63 q151 56 152 137q1 78 -193 78q-199 0 -323 -40q-49 -16 -50 -31q0 -12 10.5 -20t20.5 -13q5 -1 35 -12q6 -1 12 -8t6 -15q0 -26 -209 -23q-53 31 -53 103q0 101 151 164q45 18 105 33q122 30 273 30q323 0 323 -233q0 -135 -131 -217q-74 -46 -524 -140q283 -25 378 -115 q55 -52 56 -143q1 -97 -86 -195t-237 -159.5t-341 -62.5q-100 0 -174 26q-107 38 -108 121z" />
<glyph unicode="4" horiz-adv-x="874" d="M10 465q0 63 113 219t316 296t397 230q75 35 96 37q48 0 49 -55q0 -11 -20 -57q31 -30 32 -54q2 -58 -34 -115q-11 -17 -35 -55q-11 -17 -123 -191q-66 -102 -109 -198q158 27 174 27q45 0 45 -35q0 -45 -94 -166l-211 -45q-29 -77 -39 -172q27 -24 27 -51 q0 -22 -70.5 -70.5t-95.5 -48.5q-46 0 -47 72q-1 120 31 237q-36 0 -105 -7.5t-102 -8.5q-114 -2 -148 47q-47 85 -47 164zM147 459q194 12 351 30q115 245 337 503q83 97 85 112q0 9 -5.5 12.5t-17.5 5.5q-20 0 -164 -90q-302 -189 -448 -360q-81 -95 -138 -213z" />
<glyph unicode="5" horiz-adv-x="874" d="M-84 113q0 84 78 135q100 66 215 67q12 0 12 -8q-1 -3 -8 -8l-8 -4q-126 -47 -127 -74q-1 -25 84 -26q122 -1 256 61t224 146t91 137q1 84 -145 86q-90 1 -249 -43q-67 -18 -87 -19q-33 -1 -69 76q-7 15 -19 49q-3 12 -8 43q60 215 342 479q168 -7 264 -8q119 -1 258 6 q-92 -198 -139 -223q-25 -7 -195 -8q-161 -1 -223 2q-111 -95 -180 -238q187 63 280 64q124 1 191 -72q64 -70 65 -196q1 -166 -115 -304q-102 -122 -265.5 -192.5t-340.5 -71.5q-97 -1 -139.5 30.5t-42.5 113.5z" />
<glyph unicode="6" horiz-adv-x="854" d="M20 344q-1 147 114 326q91 142 227 268q165 153 389 260l104 -6q35 -2 86 -8q22 -3 23 -17q0 -9 -112 -74l-136 -78q-202 -122 -391 -339q-41 -47 -75 -100q-7 -11 -16 -25q209 224 369 225q99 1 155 -60q53 -59 54 -159q1 -124 -89 -270q-79 -131 -189 -217 q-119 -94 -232 -95q-75 -1 -145 62q-60 54 -96 131q-39 85 -40 176zM188 252q0 -115 72 -115q68 0 177 95q87 75 142 153q73 103 74 197q1 84 -63 84q-73 0 -225 -129q-177 -150 -177 -285z" />
<glyph unicode="7" horiz-adv-x="895" d="M150 76q-1 113 118 308q85 139 198 272q163 191 398 370q-127 18 -258 18q-169 0 -297 -57q-33 -20 -76 -43q-34 0 -34 35q0 16 46 84l62 90q29 50 60 70q25 13 143 26q102 12 293 13q75 1 152 -7q26 -1 67 -4q39 -84 41 -168q1 -24 -9 -42q-7 -13 -32 -35 q-112 -98 -218 -211q-131 -139 -255 -334q-129 -202 -129 -309q0 -27 18 -27t43 12l15 -18q-177 -137 -265 -139q-80 -1 -81 96z" />
<glyph unicode="8" horiz-adv-x="918" d="M102 156q-1 93 154 279q76 91 188 206q-147 171 -147 313q0 198 167 292q159 89 492 91q89 0 107 -2q79 -9 80 -49q1 -24 -43 -98q-21 -35 -45 -66q-14 -17 -28 -21q-10 -3 -50 -1q18 -30 18 -49q0 -35 -133 -153q-80 -71 -137 -128q-46 -46 -102 -106q50 -94 64 -124 q34 -78 34 -134q1 -117 -54 -213q-57 -99 -160 -149q-89 -43 -185 -44q-76 -1 -143 39q-76 45 -77 117zM227 178q-1 -64 113 -65q78 -1 152 66.5t75 182.5q1 107 -57 189q-282 -298 -283 -373zM465 940q-1 -72 98 -190q73 65 130 114l135 117q108 93 108 109q0 27 -133 28 q-336 2 -338 -178z" />
<glyph unicode="9" horiz-adv-x="938" d="M158 788q0 136 151 284q114 113 270 196q169 90 263 90q97 0 163 -106q24 -39 25 -62q2 -62 -138 -160q-51 -36 -65 -37q-6 0 -6 8q0 12 58 70q31 31 32 53q0 11 -12 13q-73 0 -278 -125q-95 -58 -170 -133q-41 -41 -75 -101q-39 -70 -40 -119q-1 -46 55 -47 q75 -1 241 100q74 45 126 97q99 99 150 139q42 33 77 33q54 0 57 -45q0 -5 -61 -105l-252 -408q-93 -148 -129 -201q-81 -115 -154 -181q-63 -57 -112 -57q-28 0 -29 39q-1 53 43 118q47 70 98 70q147 207 349 520q-122 -97 -154 -121q-89 -67 -164 -105q-59 -30 -108 -30 q-45 0 -103 66q-43 49 -72 106q-36 71 -36 141z" />
<glyph unicode=":" d="M127 47q-1 73 106 145q44 29 75 30t32 -36q2 -69 -95 -155q-39 -34 -69 -35q-48 -1 -49 51zM326 485q0 74 103 154q43 33 71 33q22 0 33.5 -13t11.5 -36q0 -70 -98 -161q-39 -36 -72 -36q-49 0 -49 59z" />
<glyph unicode=";" d="M121 33q-1 62 100 145q40 33 74 33q39 0 39 -47q0 -49 -57 -136q-52 -81 -97 -116q-23 -18 -38 -21t-15 9q25 35 55 82q-60 3 -61 51zM324 467q-2 71 106 158q41 33 70 34q44 1 45 -53q2 -74 -93 -163q-36 -34 -71 -35q-55 -1 -57 59z" />
<glyph unicode="&#x3c;" horiz-adv-x="1366" d="M172 557v141l1094 459v-170l-881 -358l881 -361v-172z" />
<glyph unicode="=" horiz-adv-x="1366" d="M172 315v158h1094v-158h-1094zM172 786v158h1094v-158h-1094z" />
<glyph unicode="&#x3e;" horiz-adv-x="1366" d="M172 96v172l881 359l-881 360v170l1094 -459v-141z" />
<glyph unicode="?" horiz-adv-x="662" d="M117 115q0 82 63 168q26 36 43 36q39 0 72 -68q13 -27 14 -54q2 -71 -58 -156q-24 -34 -44 -35q-32 -1 -61 37.5t-29 71.5zM182 1079q0 37 26 94q26 54 54 82q47 47 207 86q68 16 127 17q193 2 195 -203q1 -104 -78 -257q-87 -169 -211 -296q-58 -59 -76 -83 q-43 -56 -45 -99q0 -2 4 -26q0 -8 0.5 -11.5t1.5 -13.5q0 -42 -31 -43q-36 -1 -62 55q-22 47 -22 88q-2 140 346 444q58 51 70 64q35 41 35 84q0 102 -139 102q-52 0 -154 -20q-126 -24 -129 -53q0 -6 37 -29q42 -17 43 -41q1 -13 -6 -15q-4 0 -20 7q-8 3 -21 8 q-56 2 -137 17q-15 8 -15 42z" />
<glyph unicode="@" horiz-adv-x="2068" d="M111 356q0 415 260 717q179 208 443 274q132 33 286 33q385 0 624 -228q232 -221 232 -536q0 -298 -191 -520q-182 -211 -405 -213q-98 -1 -144 36t-55 132q-88 -104 -202 -146q-53 -20 -101 -20q-216 -2 -318 220q-48 104 -48 233q0 232 157.5 432.5t362.5 200.5 q189 0 301 -183l33 156h180l-144 -672q-14 -59 -30 -157q-1 -27 22 -45.5t51 -18.5q82 -1 183 98q80 78 131 171q69 125 69 284q0 272 -202.5 451t-513.5 180q-362 2 -601 -248q-233 -244 -233 -614q0 -364 227 -564q231 -203 639 -204q214 0 389 67q204 79 312 234h180 q-72 -148 -251 -272q-135 -93 -296 -138q-140 -39 -336 -39q-287 0 -507 93q-257 109 -386 331q-117 201 -118 475zM676 322q0 -177 107 -254q48 -34 114 -35q128 -2 242.5 148.5t115.5 350.5q1 121 -54 200q-63 91 -179 91q-194 0 -301 -272q-45 -115 -45 -229z" />
<glyph unicode="A" horiz-adv-x="1300" d="M-125 -69q0 42 64 126q51 68 99 110q62 55 103 56q10 0 31 -10l190 203q-65 0 -172 15q-19 6 -20 34v1q0 41 92 134q56 57 119 71q33 8 143 9q-68 -8 -104 -24q-30 -13 -33 -40h117q45 0 59 2q341 332 580 503q149 107 317 196q33 -42 33 -90q0 -54 -134 -282 q-56 -96 -167 -298h-3l89 -2q31 0 69 -2q12 -1 13 -20q0 -11 -70 -97q-48 -60 -76 -96l-147 -12q-117 -219 -117 -248q0 -40 43 -41q21 0 174 88l-8 -53l-128 -98q-44 -35 -140 -93q-28 -12 -55 -12q-43 0 -71 38q-25 34 -26 79v1q0 39 53 146q12 25 99 187l-176 -4h-27 q-75 0 -211 4q-79 -87 -165 -171q-40 -39 -119 -116q-69 -71 -215 -200q-37 -27 -68 -27q-35 0 -35 33zM702 639l324 6l170 287q51 86 141 231q-144 -90 -316 -233q-167 -139 -319 -291z" />
<glyph unicode="B" horiz-adv-x="1130" d="M43 896q0 55 87 167q84 110 140 137q66 32 291 81q240 52 389 52q146 0 245 -46q133 -62 134 -191v-2q0 -140 -179 -252q-189 -119 -587 -166l-51 -60q143 -12 288 -52q70 -19 105 -34q157 -66 158 -184v-1q0 -141 -238 -263q-223 -114 -419 -115h-6q-123 0 -206 41 q-109 55 -110 170v1q0 123 213 388q-148 5 -150 82v2q0 38 48 50q5 1 245 34q211 261 381 279q10 0 17 1q9 0 10 -5q0 -6 -96 -115q-36 -41 -119 -135q370 47 488 135q60 45 61 100v2q0 125 -264 125q-139 0 -343 -49q-198 -48 -198 -72q1 -3 6 -6q47 -18 49 -30 q0 -17 -151 -62t-201 -45q-37 0 -37 38zM289 299q0 -63 68 -95q53 -25 124 -26h4q103 0 239 53q170 67 171 156v1q0 76 -198 119q-87 19 -240 40q-55 -60 -151 -187q-17 -29 -17 -61z" />
<glyph unicode="C" horiz-adv-x="1237" d="M78 57q0 182 111 389t317 437q213 238 411 353q171 99 285 101h2q79 0 120 -63q36 -55 36 -140q0 -214 -269 -516q-80 -90 -172 -171q-137 -121 -198 -121q-33 0 -58 24q-26 25 -26 58q0 104 192 284q71 66 86 68q6 0 7 -6q0 -8 -11 -31q-7 -14 -10 -27q0 -6 6 -8 q28 0 130 130q81 104 116 161q68 111 68 182q0 57 -50 58h-1q-88 0 -271 -165q-125 -111 -233 -238q-349 -408 -349 -694q0 -157 96 -219q47 -30 115 -30q285 0 734 446v-65q-339 -375 -583 -495q-134 -66 -259 -66q-222 0 -303 169q-39 81 -39 195z" />
<glyph unicode="D" horiz-adv-x="1323" d="M-41 848q0 170 86 239q83 67 287 139q236 84 446 85h7q231 0 372 -130q137 -126 137 -350q0 -174 -108 -344q-94 -149 -250 -265q-350 -260 -768 -263q-74 0 -89 40q-9 24 -9 69q0 89 39 176q141 313 501 803q-65 -7 -158 -31q-173 -45 -293 -101q-51 -24 -53 -36 q0 -6 13 -7q27 0 102 12t111 13q-92 -25 -212 -78q-29 -13 -72 -30q-23 -7 -38 -7h-1q-50 0 -50 66zM209 201q0 -25 29 -36t81 -11h6q282 0 567 187q294 193 294 433q0 153 -126 226q-101 59 -269 59q-80 0 -152 -6q0 -10 3 -29q4 -22 5 -29q0 -36 -116 -212 q-123 -186 -234 -392l-29 -54q-19 -33 -51 -101q-6 -17 -8 -35z" />
<glyph unicode="E" horiz-adv-x="1260" d="M68 98q0 164 179 308q198 159 552 225q25 5 26 16q0 17 -143 18q-168 2 -274 33q-146 44 -148 199v3q0 181 237 327q249 153 625 155h8q181 0 196 -46q7 -21 7 -76v-68q0 -41 -17 -53q-49 -33 -159.5 -85.5t-161.5 -86.5q43 65 150 145q-45 18 -125 18q-121 0 -267 -48 q-140 -47 -245 -118q-99 -67 -100 -114v-1q0 -47 128 -63q116 -14 418 -14h98q71 -7 72 -45v-2q0 -47 -42 -89t-91 -50q-94 -15 -279 -61q-81 -27 -167 -72q-289 -151 -291 -277v-1q0 -103 213 -103q355 0 723 319v-10q0 -195 -117 -305q-131 -123 -428 -192 q-131 -30 -256 -31h-4q-123 0 -212 57q-105 67 -105 188z" />
<glyph unicode="F" horiz-adv-x="1153" d="M4 799q0 36 41 120q34 69 64 112q52 74 124 108q99 47 501 109q174 27 335 28h6q85 0 141 -26q56 -25 56 -110q0 -58 -84 -227q-99 -200 -248 -415h154l-133 -191q-52 -1 -156 -6q-256 -330 -527 -527q-116 -84 -163 -85h-2q-45 0 -45 46q0 36 68 117q56 66 100 100 q75 59 180 68q61 64 154 173l83 98l-301 -15h-15q-71 0 -71 37q12 28 31 70q16 29 25 35q6 4 55 16l184 45q78 19 103 19h151q78 105 156 232q112 184 112 247q0 57 -89 57h-9q-21 -1 -202 -25q-149 -20 -281 -46q-206 -41 -299 -88q-31 -16 -37 -23q88 4 125 4h8 q71 0 72 -18q0 -7 -50 -19q-94 -23 -112 -28q-59 -24 -152 -52q-53 0 -53 60z" />
<glyph unicode="G" horiz-adv-x="1153" d="M78 372q0 152 97 321q102 177 271 313q256 205 583 305q137 42 202 43h3q35 0 57 -19q40 -33 42 -116v-2q0 -72 -122 -153q-39 -25 -116 -68q-96 -52 -116 -52q-6 0 -6 4q0 13 74 70q61 47 73 100q-197 -55 -383 -176q-235 -152 -369 -325q-149 -192 -151 -304v-4 q0 -78 78 -78q72 0 251 139q111 87 296 242q85 72 92 77q54 49 82 87q42 58 83 67q10 2 20 2q28 0 51 -19q30 -25 30 -62q0 -26 -177 -330q-101 -173 -220 -364q112 60 371 249v-53q-268 -226 -498 -379q-126 -173 -243 -302q-21 -24 -44 -48q-13 -16 -46 -33t-56 -18 q-31 -1 -51.5 22t-20.5 54v2q0 158 330 354q147 211 280 444q36 64 101 189q-131 -109 -282 -222q-36 -27 -84 -62q-9 -8 -28 -21q-202 -151 -260 -152h-2q-94 0 -147 94q-45 81 -45 184z" />
<glyph unicode="H" horiz-adv-x="1323" d="M-113 820q0 45 19 105q20 64 47 94q67 74 366 188q319 121 570 123h6q97 0 131 -35q34 -36 35 -141q0 -116 -152 -299q-62 -75 -231 -266q102 15 132 18q40 4 157 17q222 322 354 496q58 76 68 87q20 21 33 17t14 -41v-7q0 -32 -9 -60q-3 -8 -45 -79q-13 -22 -171 -250 q-37 -54 -107 -161q115 -3 221 -29l-180 -244q-69 8 -197 10l-47 -94q-28 -57 -35 -88q-3 -15 -4 -33q-1 -14 9 -43l10 -30q0 -39 -99 -82q-38 -16 -61 -17h-1q-36 0 -36 58q0 115 119 321q-168 -13 -363 -47q-58 -77 -125 -174q-33 -55 -106 -156q-14 -15 -31 -16 q-28 -1 -49 25q-10 10 -12 20q0 7 -2 22v21q0 21 75 126q38 53 72 104q-25 -3 -67 -3q-117 0 -117 70t61 125q27 24 54 25q18 1 43 -11l258 64q146 158 236 264q192 227 192 283q0 40 -46 57q-19 7 -49 8h-4q-71 0 -271 -71q-98 -35 -247 -97q-109 -45 -110 -57 q0 -13 15 -18q11 -2 38 -6q24 -2 24 -7q-1 -3 -12 -11q-15 -9 -31 -17l-215 -113q-46 -24 -67 -25h-3q-57 0 -57 80z" />
<glyph unicode="I" horiz-adv-x="897" d="M61 732q0 53 116 224q112 166 271 263q187 114 302 114q152 0 153 -207v-2q0 -172 -156 -492q-108 -223 -260 -458q9 -26 11 -43q0 -1 -4 -8.5t-11 -18.5l-73 -120q-13 -21 -25 -21t-20 8l-62 45q-12 11 -14 25q0 13 47 90q117 191 184 309q95 168 178 359q96 222 97 282 v2q0 70 -56 70q-94 0 -280 -154q-190 -158 -193 -276q0 -9 4.5 -12.5t18.5 -5.5q24 0 78 28q24 12 24 -4q0 -21 -77.5 -85t-110.5 -64t-87 52q-55 54 -55 100z" />
<glyph unicode="J" horiz-adv-x="768" d="M-82 -509q0 149 191 348q131 137 315 265q202 388 301 704q68 217 70 302q1 42 -33 43h-2q-67 0 -190 -123q-126 -126 -212 -323q-43 -98 -67 -183q-22 -76 -23 -135q0 -14 4 -57q16 25 55 75q15 16 42 35q14 10 31 16q18 6 18 -1q0 -5 -72 -95l-84 -106 q-64 -86 -129 -88h-1q-48 0 -48 117q0 155 51.5 333.5t134.5 309.5q67 106 169 195q211 184 343 186h3q135 0 135 -156q0 -64 -30 -172q-12 -41 -45 -148l-42 -135q-49 -164 -225 -499l204 110v-65l-266 -150q-172 -293 -334 -500q-140 -177 -192 -178q-30 -1 -51 20.5 t-21 54.5z" />
<glyph unicode="K" horiz-adv-x="1343" d="M-4 823q0 9 15 53l14 42q9 37 19 75q11 34 39 66q53 60 170 118q11 6 21 8q12 3 13 -7q0 -26 -37 -51q-49 -32 -57 -44q291 102 323 112q229 73 330 73q37 0 73 -55q35 -52 35 -91q0 -28 -22 -61l-160 -240q218 107 525 270q86 48 200 99q23 0 23 -22q0 -19 -47 -82 q-41 -56 -64 -79q-42 -42 -70 -42q-13 0 -36 10q-356 -182 -639 -316l-86 -129l507 -344q41 -28 113 -86q51 -51 51 -137q0 -77 -35 -78h-1q-21 0 -93 51l-10 7q-31 22 -100 69l-541 363l-160 -211q0 -39 -37 -78q-111 -117 -163 -117q-37 0 -37 45q0 27 28 62l293 364 q-26 42 -26 86q0 74 81 123q16 10 177 96q205 272 206 306q1 21 -26 22h-2q-66 0 -361 -131q-172 -76 -356 -170q-17 -9 -39 -8q-51 2 -51 59z" />
<glyph unicode="L" horiz-adv-x="1217" d="M-109 16q0 20 13 41q50 82 58 94q38 56 72 82q72 55 275 58q326 501 560.5 770.5t340.5 269.5q76 0 76 -77q0 -119 -211 -496l31 -31q-155 -195 -234 -197q-24 -1 -24 43q0 104 141 330q118 189 119 215q1 17 -16 19q-28 0 -141 -126q-104 -116 -279 -356 q-199 -274 -258 -366q163 -15 466 -100q159 -45 240 -54q-67 -77 -130 -145q-37 -40 -54 -47q-15 -6 -38 -6q-22 0 -51 5q-142 36 -427 99q-108 21 -203 22h-7q-47 0 -83 -12q-30 -10 -104 -40q-66 -27 -93 -27q-39 0 -39 32z" />
<glyph unicode="M" horiz-adv-x="1706" d="M-90 844q0 22 14 96q15 81 28.5 107t98.5 99t105 73q7 0 8 -7q-1 -5 -8 -12q-43 -35 -51 -44q-28 -28 -35 -56q371 222 528 225h1q49 0 94 -125q18 -50 18 -63q0 -83 -97 -282q-32 -68 -110 -230q91 117 192 235q78 90 115 131q66 71 126 121q183 154 247 156h2 q36 0 63 -43q25 -40 25 -79q0 -57 -149 -320q-87 -153 -193 -330l237 249q69 72 137 143q86 87 146 134q75 59 198 167q66 58 103 58q23 -1 63 -57q42 -58 42 -80q0 -28 -121 -158q-270 -289 -388 -566q-51 -119 -51 -193q0 -82 68 -84h2q47 0 118 46q21 14 64 42 q69 42 145 98q25 19 34 24v-69q-174 -163 -294 -242q-60 -39 -110 -61q-43 -19 -74 -19h-3q-77 0 -122 60q-43 56 -43 139q0 181 156 398q82 114 188 235q84 96 84 108q0 14 -16 17q-56 0 -369 -331q-155 -164 -331 -388q-45 -62 -139 -172q-22 -21 -38 -21q-28 0 -49 56 q-20 55 -20 123q0 48 52 128q4 6 84 115q179 245 265 391q45 77 57 101q34 67 35 108q1 30 -18 31h-1q-35 0 -142 -102q-252 -241 -582 -764q-27 -45 -54 -89q-43 -62 -75 -63h-1q-36 0 -68 80q-27 69 -27 115q0 17 12 33q251 337 368 532q76 127 106 208q20 53 20 87 q0 42 -39 43h-1q-50 0 -303 -153l-49 -29q-92 -55 -120 -70q-86 -46 -125 -47q-33 -1 -33 37z" />
<glyph unicode="N" horiz-adv-x="1174" d="M-104 864q0 102 134 239q107 110 224 177q19 11 20 -2q0 1 -1 1q-6 0 -66 -61q-16 -16 -41 -55q217 108 233 116q164 74 244 75h4q75 0 108 -41q18 -23 19 -58v-1q0 -80 -131 -316q-37 -67 -371 -631q300 376 542 623q182 186 303 269q83 57 122 58h1q29 0 66 -91 q15 -36 15 -62q0 -106 -133 -287q-195 -265 -275 -400q-85 -143 -86 -235v-2q0 -64 70 -65h1q58 0 177 98q61 50 121 109l2 -78q-166 -169 -283 -260q-122 -95 -192 -95q-113 0 -115 129v4q0 53 23 126q52 164 192 394q59 96 162 244q87 125 88 162q1 21 -22 21 q-88 0 -406 -355q-60 -67 -171 -208q-11 -15 -115 -151q-43 -55 -130 -169q-31 -40 -53 -41h-1q-22 0 -61 37q-40 38 -40 59q0 19 63 119q41 64 82 127q126 207 198 335q157 277 158 341q1 35 -40 39q-30 0 -175 -60q-130 -54 -326 -164q-95 -54 -110 -55q-28 0 -28 41z" />
<glyph unicode="O" horiz-adv-x="1174" d="M80 375q0 314 315 622q108 105 232 187q164 108 270 108q75 0 120 -57q29 -37 60 -127q-91 -3 -162 -23q-76 -21 -143 -59q36 8 54 14q36 8 112 17h4q53 0 94 -25q42 -26 63 -71.5t21 -96.5q0 -172 -114 -398q-144 -286 -372 -414q-139 -78 -259 -79h-2q-178 0 -256 185 q-37 89 -37 217zM219 221q0 -146 139 -147h1q119 0 293 171q135 132 223 275q114 185 114 336q0 111 -88 111q-85 0 -194 -71q-88 -57 -160 -136q-28 -31 -127 -176q18 93 100 239q-160 -174 -257 -426q-44 -113 -44 -176z" />
<glyph unicode="P" horiz-adv-x="1280" d="M47 887q0 41 156 291q350 125 618 125q308 0 430 -132q90 -97 90 -247q0 -297 -241 -485q-234 -182 -617 -185q-31 0 -135 12l-90 -164q12 -19 14 -34q0 -31 -14.5 -53t-52.5 -78l-45 -65q-27 -40 -54 -40q-45 0 -45 68q0 78 175 391q-99 38 -99 106q0 134 281 197 l305 455q-240 -7 -563 -142q-11 -4 -92 -37q-18 0 -21 17zM465 471q39 -3 117 -6h7q167 0 296 47q230 84 314 256q34 70 34 119q0 120 -202 150q-85 12 -251 14q1 -8 2 -27q0 -51 -55 -137l-174 -273l131 15q15 0 16 -15q0 -13 -26 -18l-152 -29z" />
<glyph unicode="Q" horiz-adv-x="1323" d="M59 16q0 36 29 96q29 59 58 86t85 39q48 11 158 17q427 245 637 455q135 135 188 251q21 46 21 64q0 40 -68 41h-6q-186 0 -434 -128q-125 -64 -272 -161q68 6 133 6q75 0 76 -28v0q0 -16 -95 -35q-51 -10 -135 -50q-80 -38 -102 -38q-56 0 -56 67v88q0 81 27.5 129 t96.5 93t221 112q159 70 236 95q134 44 249 45h4q116 0 186 -53q78 -60 78 -175q0 -326 -850 -788q92 -14 206 -38q214 -45 335 -46h7q91 0 177 26q-56 -122 -61 -132q-46 -89 -85 -116q-30 -22 -83 -22h-13q-94 0 -185 14q-104 16 -232 42q-252 51 -370 51h-9 q-36 -24 -53 -33q-34 -19 -58 -21q-41 0 -41 47z" />
<glyph unicode="R" horiz-adv-x="1343" d="M74 -51q0 37 100 190q71 109 127 183q-27 10 -54 21q-33 16 -30 41q2 21 35 71q54 83 115 91q32 4 118 15q100 136 171 231l145 193q-147 -20 -330 -57q-80 -16 -80 -33t77 -19q36 -1 39 -1q31 -3 32 -13q0 -9 -25 -12q5 0 -137 -6l-168 -6h-3q-46 0 -46 54q0 55 73 153 q61 82 238 135q231 69 500 71h8q132 0 279 -31q57 -12 96 -26q186 -67 188 -225v-6q0 -143 -100 -258q-48 -55 -121 -93q-131 -67 -461 -116q-149 -22 -373 -35q291 -103 512 -206q92 -41 239 -124q35 -27 36 -133v-11q0 -55 -9 -92q-8 -34 -36 -34q-14 0 -154 77 q-131 72 -299 154l-377 184q-143 -196 -161 -260q-9 -31 -46 -68t-67 -38h-2q-49 0 -49 39zM621 584q201 37 358 77q301 76 389 153q49 43 49 88q0 61 -152 88q-91 17 -198 18q-56 0 -144 -8q-24 -1 -59 -5q0 -8 1 -13q0 -9 1 -17q0 -53 -63 -140q-34 -47 -82 -110z" />
<glyph unicode="S" horiz-adv-x="1323" d="M20 18q0 40 40 100q42 60 81 77q35 15 83 19q39 3 40 -9q0 -4 -10 -11l-8 -4q-12 -4 -33 -13q-10 -3 -20 -9q-5 -3 -7 -12q0 -21 207 -21q344 0 498 60q89 35 160 94q-48 90 -188 142q-65 24 -130 34q-203 32 -377 131q-15 9 -32 34t-17 50v10q0 188 105 305 q95 106 329 162q184 45 371 45q143 0 221.5 -22t79.5 -68v-6q0 -67 -21 -110q-20 -40 -52 -60q-16 -10 -74 -31q-75 -28 -110 -46q-55 -33 -120 -68q-9 0 -10 8q0 48 123 112q53 28 55 37q0 13 -61 13h-12q-374 0 -578 -120q-90 -53 -90 -110q0 -41 85 -69q59 -15 118 -29 q125 -33 229 -78q283 -123 285 -279v-2q0 -120 -108 -218q-56 -51 -122 -79q-127 -55 -343 -81q-103 -12 -199 -13h-11q-377 0 -377 135z" />
<glyph unicode="T" horiz-adv-x="1174" d="M123 887q0 14 10 74q35 201 179 274q79 40 225 65q233 40 397 41h11q204 0 270 -37q38 -21 63 -96l31 -92q2 -5 4.5 -13.5t5.5 -23.5q0 -53 -82 -163q-46 -62 -68 -97q-253 -407 -352 -620l33 -25q-12 -27 -54 -100q-9 -17 -26 -45q-75 -130 -141 -131h-2q-66 0 -66 85 q0 110 157 376q178 303 478 679q-89 12 -209 13h-10q-276 0 -597 -103q-126 -40 -126 -59q0 -6 5 -10l16 -4q7 0 30 -3q117 -16 117 -36q0 -9 -51 -10q-16 0 -123 1q-56 1 -62 1q-42 4 -55 20q-7 11 -8 39z" />
<glyph unicode="U" horiz-adv-x="1280" d="M-80 787q0 55 76 188q35 61 59 88q140 155 454 235q130 33 218 33q123 0 123 -92q0 -107 -27 -166q-21 -46 -90 -151q-56 -86 -161 -221q-90 -116 -138 -187l-76 -110q-56 -86 -57 -119q-1 -34 33 -35h1q34 0 95 49l82 74q194 167 388 381q86 95 208 235l180 205 q38 40 64 41h1q29 0 45 -56q11 -40 11 -79q0 -41 -78 -162l-104 -150q-190 -278 -266 -461q-33 -79 -33 -122q0 -73 65 -74h1q70 0 311 188l-2 -69q-280 -286 -412 -287h-2q-154 0 -154 162q0 180 385 735q-234 -255 -342 -369q-194 -203 -358 -354q-43 -45 -135 -116 q-31 -16 -70 -17h-2q-66 0 -103 56q-32 48 -32 120q0 104 129 292q62 91 160 208q138 166 146 175q125 155 126 183q1 15 -16 15q-44 0 -181 -75q-77 -42 -188 -112q-192 -121 -287 -121q-47 0 -47 42z" />
<glyph unicode="V" horiz-adv-x="874" d="M-233 635v5q0 133 50 217q45 76 165 159q258 179 481 252q92 30 135 30q48 0 89 -61q36 -56 36 -107q0 -13 -91 -153q-120 -185 -241 -422q-71 -140 -93 -190q-54 -126 -54 -203q0 -48 53 -86q120 94 248 273q117 163 282 454q-4 12 -7 19.5t-3 13.5q0 78 66 168 q31 42 86 110q15 18 37 19h1q35 0 35 -46q0 -109 -148 -376q-167 -303 -427 -641q-138 -180 -199 -181h-1q-82 0 -150 140q-31 64 -31 141q0 92 76 276q38 91 90 191l14 27q45 84 77 137q68 107 140 231q0 15 -20 15q-99 0 -406 -238q-42 -33 -74 -60q-15 -13 -16 -21 q0 -12 19 -13q21 0 63.5 6t63.5 7q45 0 45 -17q0 -20 -69.5 -37.5t-215.5 -68.5q-66 -30 -78 -30q-27 0 -28 60z" />
<glyph unicode="W" horiz-adv-x="1430" d="M-78 778q0 12 21 94q12 55 26 102q21 73 111 129q46 29 168 93l10 -37q191 77 320 78h5q118 0 162 -44q45 -45 46 -167v-6q0 -67 -21 -114q-19 -42 -82 -134q-140 -201 -209 -280q-202 -228 -203 -271q-1 -21 29 -22h1q45 0 173 132q217 225 369 405q83 99 133 165l55 74 q31 38 86 87q70 63 99 64h1q26 0 54 -74q12 -31 12 -46q0 -12 -76 -139q-18 -30 -90 -142q-280 -435 -280 -543q0 -16 11 -28.5t24 -14.5q48 0 151 99q120 116 231 287q83 129 181 321l-17 51q-4 12 -4 32q0 18 59 97q60 81 78 82q22 1 38 -36q12 -30 12 -56 q0 -98 -126 -381q-63 -142 -159 -293q-155 -245 -344 -360q-74 -45 -111 -45q-42 0 -86 36q-34 28 -53.5 58t-23.5 89q-1 15 -1 39q0 81 48 197q49 118 139 283q-225 -274 -319 -377q-271 -298 -365 -299h-2q-58 0 -89 74q-26 59 -26 129q0 73 37 125q62 93 199 266 q127 136 177 194q142 164 142 211q0 49 -80 50h-3q-70 0 -183 -53q-126 -59 -262 -136q-149 -84 -166 -84q-27 0 -27 39z" />
<glyph unicode="X" horiz-adv-x="1237" d="M68 725q0 152 131 287q94 96 290 180q202 86 355 86q53 0 74 -21t22 -75q0 -14 -8 -135q-3 -50 -8 -220l186 203q57 62 90 99q22 25 62 64q17 13 34 13q35 1 35 -31q0 -40 -82 -186q-30 -15 -73 -24l-267 -303l-32 -543q-2 -26 9.5 -39t33.5 -14h1q47 0 214 114l12 2 q18 0 18 -16q0 -39 -89 -128q-70 -69 -124 -107q-85 -60 -153 -60q-52 0 -69 39q-16 36 -17 129v58q0 11 2 84l6 261q-203 -216 -313 -357q-21 -28 -50 -67q-44 -55 -116 -104q-66 -45 -99 -45q-32 0 -32 51q0 69 68 156q56 70 128 121q22 12 88 47l330 366l10 449 q-248 -36 -462 -205q-44 -35 -46 -45q0 -9 27 -10h7q27 0 75 6q18 0 18 -6q-1 -3 -5.5 -7t-8.5 -6q-103 -40 -167.5 -60.5t-86.5 -23.5q-18 0 -18 23z" />
<glyph unicode="Y" horiz-adv-x="1130" d="M-137 641q0 16 6 55l18 117q16 104 113 181q61 48 178 130q289 202 453 203h2q88 0 88 -90q0 -56 -124 -289q-39 -73 -124 -237q-60 -104 -175 -315q-19 -37 -19 -58q0 -43 45 -45h2q23 0 56 28q114 96 226 230q105 126 275 346q41 57 130 159q23 21 38 23q16 0 39 -30 l24 -31q27 -35 27 -55q0 -8 -201 -366q-56 -101 -135 -267q-73 -154 -158 -387q94 71 187 141q158 114 200 115q23 1 23 -20q0 -40 -81 -128q-13 -14 -112 -116l-162 -166q-54 -55 -105 -128l-79 -113q-27 -39 -51 -46q-11 -3 -21 -3q-28 0 -47 24q-22 30 -22 74 q0 93 155 452q78 181 204 408q63 114 123 216l102 174q-378 -498 -664 -770q-54 -51 -62 -58q-39 -29 -77 -30h-2q-48 0 -82 59q-15 26 -15 52q0 57 56 170q143 288 198 377q222 358 222 399q0 31 -35 31q-36 0 -109 -54q-67 -53 -200 -158q-76 -60 -177 -128 q-133 -90 -137 -90q-13 0 -14 14z" />
<glyph unicode="Z" horiz-adv-x="1110" d="M92 -471q0 85 192 272q218 213 582 398q-10 70 -38.5 96t-98.5 27h-2q-56 0 -198 -60q-144 -62 -255 -151q-21 -17 -59 -35q-19 -1 -20 33v3q1 58 33 127q34 71 79 111q61 54 201 119q300 140 455 305q66 71 67 107v1q0 38 -76 38q-211 0 -521 -179q-169 -98 -337 -227 q6 118 17 182q18 112 57 171q51 76 254 190q302 169 506 170h4q116 0 186 -56q78 -62 78 -178q0 -151 -128 -268q-110 -101 -349 -219q133 -5 193 -60.5t77 -187.5l131 55v-75l-137 -64q-51 -222 -226 -420q-166 -189 -383 -291q-115 -54 -173 -55q-24 0 -45 19l-35 32 q-31 29 -31 70zM240 -436q0 -18 28 -19h1q72 0 217 112q109 84 188 169q82 89 114 148t52 122q-218 -95 -417 -294q-183 -183 -183 -238z" />
<glyph unicode="[" horiz-adv-x="598" d="M-162 -381q-1 121 136 371q121 221 409 682q113 181 221 372q57 105 172 316q76 -9 176 -10q66 -1 185 10l-51 -112q-42 -91 -83 -112q-23 -12 -57 -12q-40 0 -147 27l-252 -437q-76 -132 -124 -211l-187 -315q-111 -195 -164 -381q103 36 174 37q87 1 164 -43 q-73 -113 -101 -164q-32 -58 -57 -151q-64 42 -143 43q-68 1 -161 -25q-43 -12 -52 -12q-57 0 -58 127z" />
<glyph unicode="\" horiz-adv-x="575" d="M4 1380h146l423 -1515h-145z" />
<glyph unicode="]" horiz-adv-x="748" d="M-340 -502q36 87 48 113q34 69 70 99q28 24 70 24q33 0 77 -10q62 -13 75 -15q207 347 610 1048q74 134 99 212q9 27 20 84q-114 -39 -176 -39q-74 0 -164 45l71 116q52 87 85 197q73 -43 139 -43q57 0 213 39q60 0 61 -108q1 -173 -208 -528q-99 -168 -293 -482 q-110 -179 -307 -521q-60 -105 -127 -227l-98 5q-29 0 -103 1t-162 -10z" />
<glyph unicode="^" horiz-adv-x="961" d="M53 530l355 801h143l356 -801h-182l-248 598l-239 -598h-185z" />
<glyph unicode="_" horiz-adv-x="1024" d="M-12 -154h1048v-102h-1048v102z" />
<glyph unicode="`" d="M319 1194q-1 42 64 43q64 1 104 -54q22 -30 53.5 -111.5t32.5 -115.5q0 -16 -12 -32q-12 -12 -31 -13q-32 -1 -81 64q-60 79 -77 105q-52 78 -53 114z" />
<glyph unicode="a" horiz-adv-x="831" d="M6 268q0 83 44 139q30 38 83 87q109 100 239 175q163 95 277 97h1q40 0 66 -58q9 -21 11 -34q0 -19 -14 -27q-8 -5 -49 -20q12 -27 35 -82q6 -15 6 -27q0 -21 -49 -92l-68 -94q-18 -29 -19 -76v-2q0 -71 68 -72h1q69 0 218 131v-61q-251 -280 -362 -281h-1q-70 0 -71 101 v3q0 75 57 226q-143 -160 -154 -171q-125 -127 -180 -128h-1q-56 0 -113 136q-25 60 -25 130zM131 228q0 -68 41 -70q13 -1 39 14q110 63 222 194q57 66 179 238q-129 -59 -191 -91q-106 -55 -180 -111q-110 -83 -110 -174z" />
<glyph unicode="b" horiz-adv-x="662" d="M4 252q0 298 327 693q86 104 203 216q167 161 232 162h1q42 0 42 -59v-1q0 -259 -672 -913q-2 -19 -2 -71v-4q0 -134 74 -134q44 0 149 113q-24 54 -24 80q0 107 147 229q56 46 84 47h1q39 0 40 -59v-3q0 -40 -24 -105q-26 -72 -68 -144q33 -27 57 -27q46 0 107 41v-65 q-103 -66 -164 -66q-36 0 -70 11q-77 -98 -123 -140q-86 -79 -161 -80h-2q-85 0 -124 101q-30 76 -30 178zM170 463q78 69 258 295q86 108 126 164q71 97 110 175q27 54 28 74q1 15 -8 15q-58 0 -250 -271q-120 -170 -150 -216q-79 -126 -114 -236z" />
<glyph unicode="c" horiz-adv-x="598" d="M4 271q0 74 44 140q28 43 102 115q212 207 327 209h3q35 0 58 -25q24 -26 25 -63v-2q0 -36 -40 -101q-33 -55 -67 -91q-40 -42 -65 -43t-26 28q0 8 0.5 15.5t1.5 13.5q0 11 -9 13q-8 1 -20 -7q-77 -53 -137 -99q-80 -61 -80 -118q0 -60 38 -96t99 -37h1q114 0 359 190 v-67q-103 -101 -142 -137q-87 -76 -159 -116q-57 -31 -114 -32h-3q-112 0 -170 157q-26 70 -26 153z" />
<glyph unicode="d" horiz-adv-x="854" d="M6 287q0 99 109 210q85 85 199 147q119 64 180 65h2l94 -62q77 162 120 243q77 145 143 229q47 60 67 61q23 1 41 -22.5t18 -47.5v-1q0 -59 -226 -424q-179 -289 -180 -452v-3q0 -87 58 -87q59 0 239 172v-73q-216 -279 -333 -279q-87 0 -88 143v7q0 89 24 200 q-174 -198 -271 -275q-42 -33 -59 -34h-2q-59 0 -112 149q-23 66 -23 134zM137 211q-1 -36 35 -39q24 0 89 59q15 13 52 45q55 46 161 142q56 56 73 139q-67 -23 -185 -83q-130 -67 -169 -105q-22 -21 -38.5 -73.5t-17.5 -84.5z" />
<glyph unicode="e" horiz-adv-x="598" d="M8 233q0 190 209 369q153 131 285 131q101 0 102 -86v-3q0 -126 -191 -247q-89 -57 -237 -118v-25q0 -125 105 -125q92 0 206 84q49 36 127 102v-61q-234 -281 -413 -281q-100 0 -150 83q-43 70 -43 177zM186 344q171 65 248 186q30 47 31 70q1 22 -21 23h-2 q-44 0 -140 -83q-98 -85 -116 -196z" />
<glyph unicode="f" horiz-adv-x="555" d="M-76 -289q0 144 127 453q-49 64 -49 129q0 79 100 125q48 75 152 196q104 256 244 500q66 115 92 115q43 0 43 -94q0 -80 -41 -169q-9 -19 -96 -171q-35 -61 -113 -195l-100 -169q-29 -49 -52 -93q71 -61 102 -101q21 -27 38 -61q55 20 128 80q43 36 74 59v-69 q-59 -59 -82 -79q-44 -37 -94 -63q0 -175 -49 -289q-76 -177 -222 -282q-62 -45 -97 -45q-53 0 -83 91q-22 67 -22 132zM49 -209q0 -44 12 -86q17 -60 50 -61h1q39 0 83 74q33 54 50 108q27 85 29 221l-2 21q-18 -2 -45 -2q-38 3 -75 22q-12 6 -27 12q-75 -186 -76 -309z " />
<glyph unicode="g" horiz-adv-x="788" d="M6 278q0 80 76 176q84 107 244 205q156 96 241 97h3q60 0 61 -47v-1q0 -64 -139 -126q-199 -88 -304 -228q-51 -68 -51 -123q0 -58 47 -59h1q55 0 212 145q42 39 109 122q70 87 107 123q44 43 79 44h2q42 0 43 -49v-1q0 -69 -168 -419l242 176v-65l-332 -273 q-84 -145 -184 -276q-158 -205 -242 -205q-30 0 -30 37q0 72 73 184q55 85 137 159q30 28 89 76l75 62q99 204 144 312q-96 -102 -138 -142q-83 -79 -155 -121q-56 -33 -105 -34h-1q-59 0 -101 98q-35 82 -35 153z" />
<glyph unicode="h" horiz-adv-x="748" d="M0 219q0 158 121 340q174 261 239 351q141 198 267 329q80 84 109 84h1q75 -5 78 -39q0 -42 -153 -262q-123 -176 -243 -331q-149 -192 -280 -335v-120q130 144 189 204q112 114 209 183q68 48 100 49h2l52 -32q27 -34 28 -62q0 -9 -10 -25q-75 -89 -97 -117 q-53 -69 -83 -127q-23 -45 -23 -78q0 -44 45 -45h1q48 0 212 129v-63q-90 -92 -124 -123q-74 -68 -138 -108q-46 -29 -80 -29h-2q-76 0 -76 92q0 131 188 401q-86 -46 -156 -126q-18 -22 -52 -60q-67 -85 -206 -249q-21 -23 -40 -23h-1q-77 0 -77 192z" />
<glyph unicode="i" horiz-adv-x="469" d="M8 264v5q0 73 27 128q16 32 41 72q141 220 260 221h2q59 0 59 -48q0 -32 -42 -103q-38 -64 -68 -93q-87 -84 -88 -85q-52 -59 -52 -109q0 -37 30 -61q28 -21 67 -21q79 0 250 145v-73q-194 -252 -324 -252q-86 0 -129 100q-32 74 -33 174zM356 831q0 45 42 97 q42 54 87 53q69 0 70 -72v-2q0 -45 -41 -94q-42 -50 -88 -51q-28 -1 -48 19q-22 21 -22 50z" />
<glyph unicode="j" horiz-adv-x="575" d="M-72 -420q0 128 118 269q62 74 142 147q118 234 128 254q103 212 104 258q1 21 -21 22q-8 0 -149 -65q-136 -63 -172 -64q-21 -1 -21 23q0 16 19 70l28 79l185 84q172 78 239 78q58 0 58 -54q0 -37 -68 -182l-84 -180q-8 -16 -100 -206q143 97 264 204l2 -71 q-185 -159 -356 -330q-200 -387 -289 -389h-1q-26 0 -26 53zM504 866q0 44 53 127q25 40 39 51q20 14 61 15h2q58 0 58 -47q0 -34 -23 -84q-17 -61 -45 -97q-19 -24 -59 -24q-86 0 -86 59z" />
<glyph unicode="k" horiz-adv-x="748" d="M-8 160q0 178 83 336q78 148 247 362q109 138 153 188q96 112 172 169q59 45 98 45q48 0 48 -43q0 -37 -177 -267q-156 -202 -516 -626v-86q181 194 269 276q216 202 311 203h1q64 0 64 -123q0 -108 -124 -219q-59 -52 -218 -152q30 -45 45 -59q28 -26 66 -27h1 q53 0 139 74q50 43 116 104v-67q-93 -109 -143 -158q-110 -107 -172 -108h-2q-92 0 -158 109q-22 36 -74 142q-48 -65 -149 -190q-16 -18 -29 -18q-51 0 -51 135zM281 301q38 0 94 -37q111 71 191 186q39 56 40 95q0 15 -14 16q-55 0 -169 -107q-85 -79 -142 -153z" />
<glyph unicode="l" horiz-adv-x="469" d="M2 258q0 210 176 524q177 314 328 404q31 18 47 18q34 0 35 -82v-2q0 -166 -152 -405q-112 -176 -276 -348q-10 -54 -10 -80v-5q0 -137 104 -139h1q39 0 114 68q6 5 125 115v-74q-209 -276 -340 -277h-2q-71 0 -110 77q-40 77 -40 206zM195 506q103 103 192.5 256 t91.5 221q1 21 -16 23q-6 0 -23 -11q-76 -63 -153 -227q-65 -141 -92 -262z" />
<glyph unicode="m" horiz-adv-x="1130" d="M0 242q0 91 84 217q61 90 109 138q43 42 90 42q67 0 69 -43v-1q0 -49 -129 -167q-22 -20 -51 -62q-33 -49 -33 -71q0 -27 21 -27q17 0 237 222q189 190 273 192q29 1 48.5 -22t20.5 -56v-1q0 -48 -118 -221q-63 -93 -148 -204q145 128 237 212l155 143q135 124 155 124 q24 0 46 -51q19 -45 19 -74q0 -16 -70 -98q-44 -52 -89 -104q-30 -41 -31 -88q-1 -25 18 -44q18 -15 43 -16h2q26 0 66 30q42 31 129 107v-71q-110 -102 -135 -124q-79 -68 -147 -107q-49 -28 -87 -29h-3q-70 0 -70 82q0 55 49 152q19 37 141 239q-180 -146 -310 -295 q-30 -34 -79 -90q-55 -61 -104 -62h-1q-50 0 -51 74v1q0 55 150 304q6 8 6 25q0 19 -20 20h-1q-20 0 -63 -42q-34 -33 -160 -173q-42 -61 -134 -176q-18 -20 -36 -20h-1q-46 0 -75 87q-22 69 -22 128z" />
<glyph unicode="n" horiz-adv-x="748" d="M6 256q0 80 62 174q58 88 91 125q69 79 124 80h3q66 0 68 -45q1 -18 -20 -41q-3 -4 -31 -35q-157 -172 -158 -227q-1 -28 19 -29q12 -1 46 38l89 101q126 145 299 262q53 36 88 37h1q20 0 34 -58q11 -44 12 -75q0 -19 -43 -67q-175 -193 -176 -273q-1 -42 35 -43h1 q45 0 220 139v-69q-122 -121 -159 -154q-126 -109 -183 -110h-1q-81 0 -81 111q0 55 37 124q51 95 137 238q-54 -27 -143 -115q-82 -81 -179 -211q-40 -54 -46 -60q-34 -39 -60 -40h-1q-41 0 -67 95q-18 70 -18 128z" />
<glyph unicode="o" horiz-adv-x="641" d="M6 281q0 137 152.5 287.5t287.5 150.5q101 0 101 -55q0 -20 -23 -46q66 -13 66 -98q0 -42 -22 -116q-24 -76 -62 -138l18 -18h15q26 0 63 26q12 8 57 43v-67q-66 -60 -99 -76q-42 -20 -105 -20h-17q-129 -153 -229 -154h-2q-114 0 -174 138q-27 61 -27 143zM131 203 q0 -66 92 -66q43 0 144 74q-17 49 -17 94q0 58 26 124q29 73 77 151q-87 -52 -127 -79q-70 -48 -115 -94q-41 -41 -55 -83q-23 -105 -25 -121z" />
<glyph unicode="p" horiz-adv-x="831" d="M-135 -327q0 120 92 270q41 67 84 129q23 32 65 98q152 260 246 463q-229 -279 -348 -402v70q136 147 241 286l161 213q55 73 91 101q55 43 126 43q33 0 34 -26v-1q0 -19 -28 -61q-26 -39 -90 -110.5t-92 -114.5q-56 -86 -123 -215q79 64 239 189q95 69 176 71h2 q43 0 43 -49q0 -139 -143 -299q-73 -81 -170 -170q36 -13 72 -13h1q113 0 310 177v-72q-94 -85 -137 -120q-81 -66 -146.5 -103t-119.5 -37q-23 0 -43 5q-23 3 -60 17q-13 5 -30 12q-5 2 -46 17q-16 -3 -36 -8q-35 0 -82 28q-31 -60 -72 -162q-51 -128 -67 -165 q-26 -59 -72 -115q-24 -24 -35 -25q-43 0 -43 79zM242 203q53 5 83 5h16q26 -2 69 -26q194 203 196 289q1 36 -37 37h-1q-65 0 -181 -124q-80 -85 -145 -181z" />
<glyph unicode="q" horiz-adv-x="768" d="M4 267q0 84 62 161q87 106 196 177q224 145 426 145q57 0 57 -72q0 -27 -14 -47q11 -19 29 -52q6 -11 6 -22q0 -22 -111 -188l-123 -183l48 -30q120 75 208 166v-72q-79 -98 -161 -172q5 -26 8 -53q0 -106 -112 -251q-85 -111 -198 -202q-121 -97 -167 -98h-1 q-72 0 -73 131v1q0 74 222 388q130 185 219 306l50 69q-139 -137 -246 -239q-119 -114 -182 -114q-76 0 -124 145q-19 58 -19 106zM121 213q0 -28 31 -29h3q86 0 234 133q179 160 252 252q33 41 33 47q0 9 -8 9q-85 0 -312 -135q-126 -77 -182 -142q-16 -18 -33.5 -64.5 t-17.5 -70.5zM231 -340q2 -7 14 -12q14 1 46 16q66 30 149.5 138t98.5 233q-15 -2 -28 -2q-40 0 -67 20q-47 -68 -120 -197q-91 -160 -93 -196z" />
<glyph unicode="r" horiz-adv-x="598" d="M6 238v65q53 62 82 109q-61 20 -61 78q0 77 104 191q58 64 107 69q20 0 20 -20q0 -17 -31 -68q201 31 260 32q21 0 29 -4q17 -9 30 -48q9 -30 9 -62q0 -24 -30 -58q-14 -16 -52 -57q-125 -135 -125 -225q0 -46 58 -47h1q59 0 211 124v-67q-79 -84 -112 -115 q-67 -64 -125 -102q-43 -28 -82 -29h-2q-96 0 -96 152q0 84 86 215q43 66 96 129q-52 -12 -137 -26q-23 -3 -60 -11q-61 -123 -180 -225z" />
<glyph unicode="s" horiz-adv-x="639" d="M12 287v24q250 263 355 381q21 123 106 123q21 0 45 -12l6 -19q-4 -18 -4 -37q0 -23 14 -74q12 -40 23 -80q8 -36 8 -83q0 -125 -117 -239q-49 -48 -147 -113q36 -6 57 -6q77 0 185 75q43 30 116 90v-67q-259 -253 -403 -254h-2q-93 0 -172 80q-46 47 -60 97 q-10 35 -10 114zM102 317q57 -11 87 -40q14 -14 57 -80q139 55 141 209q0 11 -0.5 18.5t-1.5 15.5l-18 146q-58 -65 -265 -269z" />
<glyph unicode="t" horiz-adv-x="512" d="M6 238v69q100 83 254 309q-11 0 -29 1q-22 1 -30 1h-11q-48 0 -77 -8q-35 -10 -37 -10q-3 1 -4 6q0 33 41 99q37 60 62 83q50 46 192 46h43q96 173 194 174h4q50 0 51 -25q0 -8 -48 -73q-58 -78 -60 -81q35 -3 102 -12q-58 -108 -143 -217q-29 2 -47 3l-39 3q-13 1 -47 4 q-57 -92 -82 -136q-43 -79 -65 -145q-19 -57 -19 -110q0 -67 55 -67q64 0 264 165v-67q-269 -292 -399 -293h-2q-98 0 -98 125q0 67 71 242l-27 -24q-15 -14 -45 -41q-8 -6 -24 -21z" />
<glyph unicode="u" horiz-adv-x="788" d="M6 264q0 73 36 138q42 75 140 186q28 38 90 91q20 9 64 9q86 0 90 -26q0 -52 -125 -180q-66 -68 -151 -132q-18 -60 -19 -90q-1 -42 33 -43q21 0 134 99q66 58 120 104q38 33 89 99q62 80 85 104q118 125 153 125q41 0 41 -76q0 -35 -21 -68q-16 -24 -140 -205 q-70 -102 -70 -159q0 -51 41 -52h1q56 0 216 129v-67q-65 -61 -131 -121q-84 -76 -139 -110q-40 -25 -78 -25h-2q-82 0 -82 100q0 60 106 289q-122 -163 -157 -203q-127 -151 -187 -151q-81 0 -120 116q-17 51 -17 119z" />
<glyph unicode="v" horiz-adv-x="662" d="M0 248q0 132 150 319q78 97 135 97q84 0 84 -37q0 -63 -85 -171q-69 -88 -137 -143l-18 -84q-4 -17 -4 -38q0 -52 45 -52q41 0 209 168q0 126 153 299q56 63 86 64h1q43 0 43 -60q0 -76 -67 -193q-33 -56 -81 -120q24 -45 51 -45q38 0 115 63v-67q-54 -43 -79 -55 q-40 -20 -93 -21q-19 0 -72 27q-88 -94 -124 -126q-97 -88 -146 -89h-2q-77 0 -125 97q-39 80 -39 167z" />
<glyph unicode="w" horiz-adv-x="1004" d="M0 248q0 101 100 241q109 152 184 210q35 27 60 28h3q34 0 73 -24q18 -11 18 -23q0 -79 -133 -226q-65 -71 -151 -147q-22 -67 -23 -112q-1 -39 29 -39q87 0 465 516q7 9 30 10h6q60 0 60 -41q0 -5 -66 -146q-76 -162 -78 -166q-37 -84 -38 -132v-2q0 -43 34 -43 q44 0 154 149l-4 37q0 58 49 144q42 71 93 124q56 57 85 58h1q33 0 34 -84v-2q0 -125 -115 -271q41 -41 70 -41q34 0 84 53v-71q-78 -81 -137 -82q-35 -1 -52.5 7t-50.5 32q-183 -220 -280 -221h-2q-78 0 -78 104q0 31 20 180q-57 -68 -175 -200q-66 -68 -115 -68 q-71 0 -128 124q-26 57 -26 124z" />
<glyph unicode="x" horiz-adv-x="598" d="M-18 12q0 32 38 101q40 75 66 77q4 0 8 -1t8 -3l111 129v236q-60 -15 -142 -89q-36 -33 -46 -34q-10 0 -11 29v1q0 36 79 125q58 65 112 112q72 63 104 63q45 0 47 -82q0 -10 -1 -46l-2 -56q0 -28 -3 -101q220 235 262 236q24 1 27 -33q0 -28 -50.5 -98.5t-74.5 -71.5 t-39 8l-127 -162q1 -73 7 -103q14 -70 57 -71h1q41 0 199 141v-69q-204 -282 -290 -283h-2q-52 0 -74 56q-20 49 -29 172q-50 -54 -151 -160q-23 -23 -70 -49q-14 0 -14 26z" />
<glyph unicode="y" horiz-adv-x="768" d="M4 260v6q0 54 17 90q21 46 61 103q103 148 216 235q43 33 60 33q29 0 53 -29q25 -29 25 -58q0 -41 -115 -167q-53 -58 -165 -154l-19 -55q-6 -13 -8 -28q0 -27 27 -27q45 0 186 113q104 83 170 149t134 150q15 20 48 54q11 8 23 11h6q47 0 47 -93q0 -37 -114 -205 q-161 -237 -265 -437q54 54 185 179q106 102 212 187v-67q-246 -262 -414 -483l-69 -91q-28 -38 -85 -112q-13 -16 -23 -17q-23 0 -40 47q-13 37 -14 68q-1 25 11 51q79 174 323 563l-178 -151q-131 -111 -170 -111q-46 0 -88 102q-36 88 -37 144z" />
<glyph unicode="z" horiz-adv-x="618" d="M-129 -418q0 54 26 108q47 98 190 213q57 45 183 132q-9 62 -34 85q-18 16 -83 38q-52 17 -53 53q0 37 375 299q-43 -9 -141 -27q-58 -10 -154 -20q-102 -162 -176 -236v74q51 54 113 162q-55 7 -56 45v2q0 68 125 166q50 39 80 39q33 0 33 -27q0 -9 -6.5 -13.5 t-7.5 -17.5q0 -9 16 -10q43 0 120 20.5t109 20.5q23 0 31 -43q21 -110 21 -129q0 -23 -83 -76q-107 -68 -233 -168q88 -39 121 -151l250 196v-67l-252 -203q-9 -94 -67 -195q-109 -190 -280 -307q-74 -51 -108 -51q-59 0 -59 88zM-43 -358q0 -22 20 -23h2q90 0 202 155 q54 75 79 167q-131 -90 -255 -231q-48 -55 -48 -68z" />
<glyph unicode="{" horiz-adv-x="854" d="M217 305v164q184 5 201 215q7 86 8 301q1 185 64 269q69 91 192 95q34 1 59 1h56v-158h-31q-132 0 -158 -74q-14 -40 -14 -133v-145q0 -205 -46 -303.5t-165 -149.5q153 -71 191 -229q20 -84 20 -221v-148q0 -162 65 -190q34 -15 107 -15h31v-157h-56q-113 0 -166 24 q-102 46 -134 183q-15 65 -15 157q0 202 -8 300q-8 92 -52 151t-149 63z" />
<glyph unicode="|" horiz-adv-x="1110" d="M530 -514v1894h160v-1894h-160z" />
<glyph unicode="}" horiz-adv-x="854" d="M168 -416h31q131 0 157 73q15 43 15 132v148q0 177 31 265q46 129 178 185q-118 56 -163.5 150t-45.5 303v145q0 87 -15 132q-25 75 -157 75h-31v158h55q116 0 166 -27q104 -45 134 -181q16 -71 16 -157q0 -117 1 -233q9 -153 58 -220q44 -60 150 -63v-164 q-185 -5 -202 -216q-6 -73 -7 -298q-1 -186 -65 -271q-59 -79 -159 -89q-40 -4 -92 -4h-55v157z" />
<glyph unicode="~" horiz-adv-x="1366" d="M174 467q8 137 63 221q68 102 195 103q109 1 335 -99q104 -46 127 -54q81 -31 132 -32q161 -2 180 185h58q-5 -134 -68 -221q-72 -101 -199 -101q-99 0 -305 88q-117 50 -140 58q-86 32 -146 32q-142 1 -175 -180h-57z" />
<glyph unicode="&#xa1;" horiz-adv-x="2105" d="M161 783q0 135 121 203q48 27 100 27q114 0 170 -89q-17 2 -33 2q-178 0 -170 -184q4 -89 108 -158q113 -74 275 -74q150 0 308 67q7 3 13 3q31 0 31 -26q0 -18 -26 -29q-243 -102 -404 -102q-77 0 -157 17q-156 33 -250 136q-86 95 -86 207zM193 247q0 33 10 68 q21 75 84 116q54 35 116 35q19 0 35 -4q-82 -63 -82 -144q0 -68 67 -129q46 -42 125 -42q126 0 252 98q146 113 228 316q8 21 30 21q25 0 25 -25q0 -9 -5 -20q-66 -162 -126 -251q-82 -121 -211 -205q-124 -81 -255 -81q-124 0 -208.5 70.5t-84.5 176.5zM498 1122 q0 124 70.5 208.5t176.5 84.5q33 0 68 -10q75 -21 116 -84q35 -54 35 -116q0 -19 -4 -35q-63 82 -144 82q-68 0 -129 -67q-42 -46 -42 -125q0 -126 98 -252q113 -146 316 -228q21 -8 21 -30q0 -25 -25 -25q-9 0 -20 5q-162 66 -251 126q-121 82 -205 211q-81 124 -81 255z M595 -116q0 114 89 170q-2 -17 -2 -33q0 -178 184 -170q89 4 158 108q74 113 74 275q0 150 -67 308q-3 7 -3 13q0 31 26 31q18 0 29 -26q102 -243 102 -404q0 -77 -17 -157q-33 -156 -136 -250q-95 -86 -207 -86q-135 0 -203 121q-27 48 -27 100zM921 954q0 77 17 157 q33 156 136 250q95 86 207 86q135 0 203 -121q27 -48 27 -100q0 -114 -89 -170q2 17 2 33q0 178 -184 170q-89 -4 -158 -108q-74 -113 -74 -275q0 -150 67 -308q3 -7 3 -13q0 -31 -26 -31q-18 0 -29 26q-102 243 -102 404zM1022 556q0 18 26 29q243 102 404 102 q77 0 157 -17q156 -33 250 -136q86 -95 86 -207q0 -135 -121 -203q-48 -27 -100 -27q-114 0 -170 89q17 -2 33 -2q178 0 170 184q-4 89 -108 158q-113 74 -275 74q-150 0 -308 -67q-7 -3 -13 -3q-31 0 -31 26zM1023 553q0 9 5 20q66 162 126 251q82 121 211 205 q124 81 255 81q124 0 208.5 -70.5t84.5 -176.5q0 -33 -10 -68q-21 -75 -84 -116q-54 -35 -116 -35q-19 0 -35 4q82 63 82 144q0 68 -67 129q-46 42 -125 42q-126 0 -252 -98q-146 -113 -228 -316q-8 -21 -30 -21q-25 0 -25 25zM1026 560q0 25 25 25q9 0 20 -5 q162 -66 251 -126q121 -82 205 -211q81 -124 81 -255q0 -124 -70.5 -208.5t-176.5 -84.5q-33 0 -68 10q-75 21 -116 84q-35 54 -35 116q0 19 4 35q63 -82 144 -82q68 0 129 67q42 46 42 125q0 126 -98 252q-113 146 -316 228q-21 8 -21 30z" />
<glyph unicode="&#xa2;" horiz-adv-x="1110" d="M92 119q-1 23 34.5 79.5t55.5 57.5q6 0 62 -39q80 -56 194 -57q165 -2 277 87q48 38 49 70q1 34 -62 64q-7 4 -90 35q-84 26 -167 53q-109 34 -154.5 65.5t-46.5 90.5q-2 125 113 205q51 35 130 65q-50 24 -65 40q-22 23 -23 69q-1 48 26.5 121t59.5 108q62 67 253 103 q95 18 200 18q111 0 151 -10q88 -23 89 -101q1 -64 -40 -90q-15 -9 -157 -63q-15 7 -16 14q0 2 16.5 16t17.5 25q0 40 -139 41q-127 1 -234 -39q-102 -38 -102 -88q0 -30 29 -41q168 -61 367 -121q205 -62 206 -182q1 -132 -315 -244q130 -80 131 -166q1 -90 -95 -175 q-75 -67 -177 -108q-119 -48 -246 -49q-193 -1 -288 71q-43 33 -44 75zM383 692q-1 -39 85 -76q80 -28 237 -92q267 70 268 144q1 41 -30 58.5t-116 47.5q-46 17 -139 51q-20 5 -53 17q-82 -16 -149 -47q-102 -46 -103 -103z" />
<glyph unicode="&#xa3;" d="M127 47q-1 73 106 145q44 29 75 30t32 -36q2 -69 -95 -155q-39 -34 -69 -35q-48 -1 -49 51zM326 485q0 74 103 154q43 33 71 33q22 0 33.5 -13t11.5 -36q0 -70 -98 -161q-39 -36 -72 -36q-49 0 -49 59z" />
<glyph unicode="&#xa4;" d="M96 70q0 20 13 41q166 262 251 507q76 219 78 396q2 157 -41 180q-8 -18 -18 -20q-3 0 -5 9q0 11 1 17q0 48 23 87q28 45 73 46q70 2 114 -141q21 -68 21 -160q0 -174 -65 -372q-32 -96 -82 -205q-76 -165 -130 -256q-111 -190 -179 -191q-54 -1 -54 62z" />
<glyph unicode="&#xa5;" d="M211 453q-2 318 220 629q55 76 134 163q112 121 158 123q26 1 27 -55q1 -52 -84 -146q-135 -149 -215 -339q-83 -199 -84 -392q0 -84 19 -166t50 -123q17 27 27 29q11 0 12 -67q1 -48 -26 -80q-31 -34 -77 -22q-85 22 -136 232q-24 100 -25 214z" />
<glyph unicode="&#xa6;" horiz-adv-x="831" d="M96 41q-1 23 67 155q79 153 79 197q0 35 -49 144q-54 120 -54 143q0 40 43 41q82 1 209 -239q48 -92 49 -113q1 -31 -62 -124q-45 -66 -108 -139q-90 -105 -127 -106q-45 -1 -47 41zM412 41q-1 21 66 153q42 83 49 98q31 69 32 101q1 34 -55 157q-22 46 -49 130 q0 40 43 41q79 2 211 -240q48 -89 49 -112q1 -41 -82 -152q-60 -81 -116 -141q-71 -75 -101 -76q-45 -1 -47 41z" />
<glyph unicode="&#xa7;" horiz-adv-x="831" d="M98 350q0 54 124.5 211.5t170.5 159.5q45 2 47 -43q1 -16 -83 -191q-36 -76 -37 -78q-22 -51 -23 -83q-1 -20 10 -50q12 -34 35 -86q55 -124 55 -149q0 -40 -41 -41q-81 -1 -210 238q-48 89 -48 112zM414 350q0 53 123 211t172 160t49 -43q0 -25 -71 -165 q-36 -71 -45 -92q-29 -64 -30 -95q-1 -34 57 -161q22 -46 46 -124q2 -40 -43 -41q-81 -2 -210 237q-48 89 -48 113z" />
<glyph unicode="&#xa8;" horiz-adv-x="1300" d="M170 465q-1 31 60 75q58 43 126 65q41 13 168 15q-132 -16 -137 -64q175 0 315 23l490 8q133 2 155 -4q19 -2 19 -9q0 -11 -22 -40q-8 -10 -61 -44.5t-69 -59.5q-48 -7 -112 -7q-42 0 -135.5 4.5t-145.5 4.5q-56 0 -106 -4q-167 -13 -447 -6q-60 2 -76 7q-21 8 -22 36z " />
<glyph unicode="&#xa9;" d="M117 45q0 18 21 64q54 119 122 120q42 1 43 -51q1 -32 -29 -85q-55 -95 -116 -97q-41 -1 -41 49z" />
<glyph unicode="&#xaa;" d="M319 1194q-1 42 64 43q64 1 104 -54q22 -30 53.5 -111.5t32.5 -115.5q0 -16 -12 -32q-12 -12 -31 -13q-32 -1 -81 64q-60 79 -77 105q-52 78 -53 114z" />
<glyph unicode="&#xab;" horiz-adv-x="351" d="M-35 -158q0 15 11 19l34 8q55 8 101 37q57 36 58 85q1 39 -38 41h-16q-8 0 -13 -2q-24 0 -25 25q-1 34 49 59q42 20 80 21q111 2 111 -103q0 -121 -154 -189q-67 -30 -137 -30q-60 0 -61 29z" />
<glyph unicode="&#xac;" horiz-adv-x="1044" d="M242 455q-1 19 53 75q64 67 246 68q33 0 147 -10q19 4 41 8q107 0 107 -25q0 -30 -46 -63q-75 -54 -238 -70q-133 -13 -198 -13q-110 0 -112 30z" />
<glyph unicode="&#xad;" horiz-adv-x="1044" d="M242 455q0 20 53 75q65 67 246 68q33 0 147 -10q19 4 41 8q5 0 53 -8q9 -1 26 -4q10 -2 19 -5.5t9 -7.5q0 -9 -54 -55q-49 -42 -108 -59q-38 -11 -122 -19q-74 -7 -196 -8q-112 -1 -114 25z" />
<glyph unicode="&#xae;" horiz-adv-x="2048" d="M227 27q-1 64 60.5 134.5t124.5 71.5q45 1 45 -55q0 -64 -56 -136q-60 -75 -122 -75q-51 0 -52 60zM909 27q0 71 65 138t120 68q27 0 37 -13.5t10 -41.5q1 -64 -58 -137t-122 -74q-52 -1 -52 60zM1593 27q-1 94 105 173q44 33 78 33q46 0 47 -55q1 -63 -58 -135 q-61 -75 -123 -76q-48 -1 -49 60z" />
<glyph unicode="&#xaf;" d="M236 863q0 135 103 224q34 29 108.5 44.5t101.5 38.5q32 27 41 66.5t19 48.5q22 20 53 -17q22 -27 22 -91q0 -96 -64 -150q-35 -30 -126.5 -49.5t-114.5 -38.5q-34 -28 -64 -108q-26 -68 -40 -68q-39 0 -39 100z" />
<glyph unicode="&#xb0;" horiz-adv-x="360" d="M30 946q0 39 104 189q40 57 67 77q37 27 95 27q73 0 74 -51q1 -59 -203 -221q-72 -57 -92 -58q-41 -2 -45 37z" />
<glyph unicode="&#xb1;" d="M408 1360q110 121 213 159q60 22 115 22q69 0 115 -35q51 -38 51 -104q0 -119 -175 -217q61 71 61 123q0 24 -11 56q-26 75 -115 75q-81 0 -214 -99z" />
<glyph unicode="&#xb2;" horiz-adv-x="1556" d="M9 784q-4 36 34 134.5t76 144.5q90 110 306 193q196 75 342 75q124 0 132 -92q7 -87 -5 -126q-49 -154 -257 -459t-204 -369q3 -40 69 -40q37 0 59 16l94 60q86 58 91 84q3 -4 -7 -36q-12 -35 -12 -46q0 -6 3 -8q52 -45 83 -27q189 110 294 273q10 15 10 35q0 9 -3 29.5 t-3 32.5q0 49 42 95q26 29 26 40q0 9 -13 9q-18 0 -131 -40q33 39 77 115q23 39 45 77q108 140 222 211q78 48 123 49q57 2 69 -135q5 -60 -36 -98q-112 -103 -171 -204q-118 -202 -194 -293q-115 -137 -269 -216q255 -83 530 -83q122 0 200 25q-75 -200 -94 -228 q-29 -41 -111 -42q-379 -3 -807 132q-30 -26 -120 -48q-79 -19 -127 -20q-60 -1 -102 45.5t-50 130.5q-9 95 117 306q73 122 238 352q130 181 130 200q-1 15 -17 15q-20 0 -76 -22q-69 -28 -128 -68q-320 -218 -425 -218q-45 0 -50 39z" />
<glyph unicode="&#xb3;" horiz-adv-x="1164" d="M0 246q-2 142 203 374q93 105 141 107q24 1 57 -13q37 -16 37 -34q0 -123 -284 -373q-22 -68 -23 -112q-1 -39 29 -39q89 0 465 516q6 8 29 8q67 0 67 -39q0 -1 -90.5 -194.5t-91.5 -249.5q-1 -45 34 -45q66 0 266 252.5t208 252.5q21 0 43 -46t22 -79 q0 -10 -94.5 -121.5t-95.5 -168.5q-1 -58 61 -60q40 -1 197 137v-65q-283 -264 -369 -266q-75 -2 -75 84q0 15 4 32q12 54 21 73q17 35 35 71q-76 -96 -153 -192q-72 -77 -139 -72q-76 6 -76 123q0 62 16 161q-75 -88 -151 -176q-87 -92 -139 -92q-44 0 -96 72 q-57 80 -58 174z" />
<glyph unicode="&#xb4;" horiz-adv-x="1503" d="M72 -56q0 16 62 105q84 118 97 140q480 789 482 874q0 16 -11.5 28t-28.5 11q-79 -5 -292 -113.5t-223 -109.5q-28 0 -28 39q-1 79 96 198q105 130 262 220q19 11 20 -2q0 -5 -24 -23q-50 -38 -84 -92q239 131 381 135q130 3 131 -99q1 -63 -103 -254 q-152 -283 -178 -341q302 373 476 501q134 99 270 96q50 -1 82 -97q28 -87 28 -202q0 -30 -2 -58q-17 -200 -129 -271q-71 -45 -375 -111q-15 -3 -25 -3q-17 0 -17 10q0 8 9 19q65 31 130 63q74 36 106 94q44 78 44 227q0 21 -17.5 41.5t-29.5 19.5q-211 -15 -700 -673 q39 31 108 72q21 4 46 4q67 0 250 -56q35 -11 224 -77q87 -30 142 -30q48 0 112 17q-85 -184 -116.5 -220.5t-98.5 -34.5q-114 3 -320 90q-213 90 -439 102q-55 -84 -110 -169q-92 -135 -110 -135q-97 -1 -97 65z" />
<glyph unicode="&#xb5;" horiz-adv-x="808" d="M-145 -330q0 106 99 279q71 110 142 221q66 110 81 144q23 53 45 106q-94 -99 -149 -138q-40 -25 -79 -51v70q53 44 105 88q68 59 111 115q58 76 113 163q26 40 60 64q47 33 113 33q34 0 34 -24q0 -22 -28 -64q-23 -19 -112 -140q-26 -39 -97 -176q95 123 210 206 q120 87 208 89q27 1 36 -8.5t9 -40.5q0 -9 8.5 -63t8.5 -90q0 -97 -57 -133q-102 -65 -180 -68l-12 24q51 0 76 40q5 9 5 32q0 44 -16 102t-30 58q-80 1 -327 -305q-88 -109 -173.5 -322t-125.5 -262q-21 -25 -39 -25q-39 0 -39 76zM145 -6q0 40 60 110q52 61 113 104 l30 -12q-52 -29 -52 -50q0 -37 88 -34q132 4 190 26q102 38 250 176v-54q-59 -85 -119 -148q-143 -150 -264 -163q-42 -5 -81 -5q-134 0 -215 50z" />
<glyph unicode="&#xb6;" horiz-adv-x="1362" d="M17 459q0 267 235 492q191 182 492 301q258 102 426 102q102 0 102 -135q0 -105 -269 -239q-72 -36 -85 -36q-6 0 -6 4q0 13 74 70q61 48 73 100q-96 -27 -193 -71q-280 -127 -478 -293q-232 -193 -232 -351q0 -82 78 -82q79 0 313 141q227 136 347 248q22 20 86 91 q33 36 58 42q11 3 21 3q34 0 57 -23.5t23 -58.5q0 -10 -44 -94q-2 -13 -182 -312q70 50 141 101q126 84 196 84q13 0 25 -3q43 -12 50 -123q7 -106 26 -106q7 0 18 8v-53q-57 -48 -145 -48q-32 0 -105 8.5t-114 8.5q-120 0 -219 -60q-273 -398 -389 -401q-70 -2 -72 76 q-3 159 330 356q113 161 129 188q3 6 81 157q-303 -250 -473 -328q-85 -38 -181 -39q-82 0 -138 78t-56 197z" />
<glyph unicode="&#xb7;" horiz-adv-x="788" d="M6 276q0 160 210 324q196 153 351 156q63 1 64 -47q1 -66 -139 -127q-129 -56 -238 -159q-117 -110 -117 -192q0 -59 47 -59q65 0 130 57q39 34 129 144q99 120 170 189q45 43 79 44q44 1 45 -49q1 -67 -168 -420q48 28 91 58q102 72 159 142l-63 -243q-116 0 -277 -119 q-131 -228 -254 -361q-111 -120 -172 -120q-30 0 -30 37q0 113 75 217q54 76 158 157q70 54 141 107q99 204 144 312q-276 -295 -398 -297q-50 -1 -93.5 80t-43.5 169z" />
<glyph unicode="&#xb8;" horiz-adv-x="1259" d="M7 997q-1 79 96 198q105 130 262 220q19 11 20 -2q0 -5 -24 -23q-50 -38 -84 -92q23 9 88 42q10 4 65 5q130 2 131 -99q1 -65 -88 -224l-144 -256q380 497 695 497q33 0 65 -6q36 -6 60 -60q22 -47 22 -93q0 -75 -121 -300q-153 -284 -159 -300q-4 -10 -4 -19 q0 -34 67 -35q13 0 101.5 36t146.5 36q82 0 136 -63l-144 -297q-107 56 -237 56h-9q-86 0 -145 16q-14 4 -110 -152t-106 -154q-17 4 -50 17q-26 10 -37 10q30 113 54 154q54 93 109 216q88 195 176 389q84 189 84 234q0 44 -88 44q-200 0 -419 -278q-51 -68 -102 -135 q-59 -76 -81 -75q-23 1 -62.5 39t-39.5 57q0 29 145 246q115 172 115 222q0 38 -60 34q-79 -6 -182.5 -74.5t-113.5 -69.5q-28 0 -28 39z" />
<glyph unicode="&#xb9;" horiz-adv-x="748" d="M6 256q0 91 87 215q115 164 190 164q70 0 71 -45q0 -18 -104.5 -140.5t-104.5 -162.5q0 -28 19 -29q12 -1 46 38q353 400 476 400q15 0 31 -46t16 -87q0 -104 -33 -174q-66 -126 -131 -252q51 41 223 202l-36 -246q-116 0 -277 -118q-131 -228 -254 -361 q-111 -120 -172 -120q-30 0 -30 37q0 113 75 217q54 76 158 157q70 54 141 107q128 264 128 401q0 26 -5 46q-129 -87 -230 -200q-36 -41 -124 -160q-48 -66 -74 -66q-32 0 -59 67t-27 156z" />
<glyph unicode="&#xba;" horiz-adv-x="1280" d="M-80 784q-1 36 46 134.5t89 144.5q100 110 323 193q203 75 349 75q123 0 123 -92q0 -43 8 -81.5t8 -45.5q0 -32 -56 -104q-1 -2 -1 -3q0 -8 78 -2q118 9 170 9q80 0 131 -13l208 -48q68 -16 89 -33q33 -26 33 -54q0 -32 -50 -77q-55 -42 -109 -85l-218 44 q-105 21 -295 37q-62 12 -162 27q-56 -73 -155 -165q-102 -93 -133 -133q-59 -75 -72 -163q-14 -93 -14 -77q0 -22 24 -22q92 -1 272 108q177 106 286 224q38 40 64 41q23 1 40 -36t17 -99q0 -33 -35 -91q-23 -38 -45 -66q-10 -14 -10 -22q0 2 2.5 -29.5t2.5 -74.5 q0 -73 65 -74q69 -1 312 188l-2 -69q-273 -279 -412 -287q-95 -6 -166 68q-68 70 -68 158q0 28 9 54q-289 -239 -451 -239q-60 0 -97 45q-40 47 -40 131q0 103 129 292q68 99 204 265q85 102 169 204q58 74 59 97q1 15 -16 15q-58 0 -318 -154t-338 -154q-46 0 -47 39z" />
<glyph unicode="&#xbb;" horiz-adv-x="720" d="M0 219q0 81 126 348q147 311 216 437q85 153 164 235q83 86 110 84q80 -6 80 -33q-1 -4 -2 -6l-460 -735q-102 -162 -102 -229q0 -31 7 -84q88 9 249 162t186 154q39 1 39 -58q0 -27 -61 -127.5t-61 -136.5q0 -42 60 -44q44 -1 102 40q79 58 79 156q0 22 -4 46l31 13 q11 -31 11 -65q0 -128 -150 -264q-130 -119 -198 -120q-91 -1 -91 71q0 82 109 205l-254 -186q-74 -54 -108 -55q-78 -2 -78 192zM381 672q0 77 59.5 145.5t145.5 80.5q35 5 63 5q41 0 95 -15q86 -23 124 -30q64 -12 73 -219q-28 -2 -52 -2q-93 0 -184 47.5t-209 47.5 q-85 0 -85 -41q0 -5 1 -11q-5 -8 -11 -16q-4 -3 -20 8z" />
<glyph unicode="&#xbc;" horiz-adv-x="1228" d="M-60 -44q0 17 14 41q34 77 88 187q18 74 68 180q23 23 43 23q30 0 53 -47q19 -42 38 -83q27 -41 87 -50q156 28 289 128q128 96 162 201q-161 -81 -328 -81q-115 0 -156 33q-75 61 -101 106q-37 65 -37 175q0 194 214 345q201 141 556 222q110 25 219 26q102 1 102 -135 q0 -83 -166 -186q-143 -89 -188 -89q-6 0 -6 4q0 8 69 68.5t78 101.5q-356 -79 -522 -165q-222 -115 -222 -285q0 -78 68 -104q32 -12 78 -12q113 0 254 62q149 65 240 162q64 68 110 68q23 0 44 -18t21 -38q0 -29 -35 -118q-53 -135 -167 -261q-171 -188 -385 -213 q146 -16 364 -68.5t284 -60.5q-50 -57 -130 -145q-48 -52 -102 -52q-18 0 -41 4l-288 68q-227 52 -342 53q-97 1 -188 -39t-99 -40q-40 0 -40 32z" />
<glyph unicode="&#xbd;" horiz-adv-x="768" d="M5 275q0 50 16 81q49 96 172 233.5t165 137.5q27 0 52 -27t26 -59q2 -81 -280 -322q-13 -37 -27 -83q0 -27 27 -27q59 0 188 91q170 122 302 321q40 60 71 65q51 8 53 -92q0 -33 -117 -209q-163 -245 -262 -434q112 113 397 366q1 -43 0 -67q-177 -184 -401 -472 q-178 -229 -190 -231q-23 -3 -39 34q-14 33 -14 77q0 34 10 55q93 197 323 563q-281 -262 -348 -262q-43 0 -83.5 87.5t-40.5 173.5z" />
<glyph unicode="&#xbe;" horiz-adv-x="1437" d="M68 784q-1 36 46 134.5t89 144.5q100 110 323 193q203 75 349 75q137 0 137 -107q0 -54 -43 -127t-43 -65q0 -10 171 -18q199 -9 275 -33q83 -27 90 -81q1 -12 1 -23q0 -60 -47 -114q-28 -33 -120 -106q-129 75 -279 102q-20 3 -297 33q-165 -215 -171 -225 q-60 -92 -89 -223q-4 -20 -4 -38q0 -58 26 -56q73 5 134 5q254 0 354 -106q10 -10 10 -30q0 -42 -42 -113q-37 -63 -68 -88q-60 -49 -236 -40q118 36 118 65q0 2 -2 3q-162 58 -387 58q-137 0 -137 176q0 103 129 292q68 99 204 265q85 102 169 204q58 74 59 97q1 15 -16 15 q-58 0 -318 -154t-338 -154q-46 0 -47 39z" />
<glyph unicode="&#xbf;" horiz-adv-x="687" d="M-45 52q0 74 82 120q20 59 33 108q-18 -12 -36.5 -24t-37.5 -24q-3 20 4 60q23 36 86 109q55 63 88 123q80 144 181 400q94 240 114 272q80 125 109 123t51 -51q17 -37 20 -64q0 -41 -169 -335q-201 -351 -255 -473q-12 -28 -60 -200q20 4 46 4q91 0 172 -43 q98 -53 122 -149q5 -20 5 -41q0 -80 -68 -143q-64 -60 -145 -68q-47 -5 -99 14q-64 24 -69 70l44 8q49 -38 78 -38q12 0 26 2q45 8 79 41.5t34 72.5q0 33 -27 58q-20 18 -76 18q-18 0 -79 -4q-56 -3 -91 -2q-39 -36 -79 -36q-35 0 -59 27t-24 65zM309 500q0 46 59 109 q62 67 137 91q29 9 72 9q56 0 120 -13q49 7 60 -240q-56 16 -155 72q-70 40 -169 44q-32 1 -52 -8q-26 -13 -20 -44q-4 2 -9 2q-10 0 -25 -12t-18 -10z" />
<glyph unicode="&#xc0;" horiz-adv-x="1389" d="M15 -9q0 17 79 135q109 165 113 171q408 670 410 766q0 16 -11.5 28t-28.5 11q-79 -5 -290 -111.5t-221 -107.5q-28 0 -28 39q-1 79 96 198q105 130 262 220q19 11 20 -2q0 -5 -24 -23q-50 -38 -84 -92q238 129 377 131q130 2 131 -99q1 -62 -69 -184 q-112 -197 -145 -271q134 152 288 275q230 184 375 184q20 0 37 -3q33 -6 56 -72q26 -72 26 -175q0 -257 -151 -521q-47 -82 -219 -82q-117 0 -117 22q0 -3 30 9q37 14 66 55q46 64 82 201q34 131 34 223q0 76 -27 76q-96 0 -181.5 -50.5t-230.5 -193.5q-167 -165 -404 -568 q4 2 72 52q175 -4 334 -52q247 -75 328 -75q50 0 165 15q-94 -204 -114 -230q-34 -43 -115 -40q-112 5 -265 54q-170 55 -296 69q-101 1 -302 6q-58 2 -58 12z" />
<glyph unicode="&#xc1;" horiz-adv-x="786" d="M-175 -330q0 106 99 279q71 110 142 221q77 129 158 304q-75 -77 -230 -237v74q141 154 215 250q48 63 157 224q68 101 104 126q47 33 113 33q34 0 34 -24q0 -22 -28 -64q-58 -62 -182 -225q-109 -168 -215 -365q-151 -280 -151 -366q0 -36 27 -36q238 0 238 101 q0 22 -8 55q-29 114 -29 188q0 108 55 208q64 117 181 195q103 69 185 71q25 1 35 -7.5t10 -41.5q0 -14 -21.5 -128t-21.5 -184q0 -17 1 -33q3 -32 24 -32q42 0 81 71l3 -90q-87 -125 -177 -125q-77 0 -86 112q-3 132 -10 264q-37 1 -98 -44t-97.5 -102.5t-36.5 -129.5 q0 -47 34 -180q34 -136 34 -164q0 -76 -90 -126q-97 -55 -371 -123q-20 -5 -33 -5q-45 0 -45 56z" />
<glyph unicode="&#xc2;" horiz-adv-x="1446" d="M24 862q-1 79 96 198q105 130 262 220q19 11 20 -2q0 -5 -24 -23q-50 -38 -84 -92q229 115 308 148q103 42 169 43q130 2 131 -99q1 -64 -102 -260q-159 -308 -177 -347q307 380 466 502q129 100 278 107q58 3 82 -153q6 -42 6 -90q0 -143 -52 -305q-51 -158 -127 -261 q85 -70 116 -108q51 -65 48 -132q-2 -45 -108 -69q-67 -16 -144 -19q24 7 76 60q-2 62 -64 120q-100 -154 -229 -231q-100 -61 -187 -61q-34 0 -53 10q-109 60 -109 159q0 118 127 246q101 103 280 103q80 0 143 -31q80 135 80 287q0 80 -22 133.5t-51 53.5q-96 0 -332 -229 q-249 -241 -531 -620q-157 -211 -183 -210q-57 2 -57 33q0 17 55 105q45 71 90 141q480 789 482 874q0 16 -11.5 28t-28.5 11q-79 -5 -340 -141.5t-271 -137.5q-28 0 -28 39zM854 378q-6 -39 25 -78.5t71 -39.5q39 0 87 43q40 36 63 77q-92 62 -144 60q-93 -4 -102 -62z" />
<glyph unicode="&#xc3;" horiz-adv-x="810" d="M-195 -330q0 106 99 279q71 110 142 221q67 112 98 181.5t62 140.5q-66 -89 -212 -261v70q54 58 200 279q141 212 163 244q80 114 121 143q47 33 113 33q34 0 34 -24q0 -22 -28 -64q-58 -62 -182 -225q-23 -36 -73 -131q112 128 228 215q133 99 217 101q27 1 36 -8.5 t9 -40.5q0 -112 -41 -263q-39 -144 -87 -228q58 -35 70 -35q18 0 56 25v-72q-44 -42 -83 -42q6 0 -75 12q-44 -101 -124 -170q-71 -60 -121 -60q-35 0 -66 24q-45 36 -45 107q0 35 12 79q11 40 75 96q74 65 139 65q22 0 42 -9q65 86 65 203q0 42 -9 85q-2 11 -12 11 q-6 0 -22.5 -5.5t-25.5 -5.5q-63 1 -368 -376q-88 -109 -188.5 -352.5t-140.5 -292.5q-21 -25 -39 -25q-39 0 -39 76zM396 172q-2 -16 10 -16q17 0 48.5 24.5t45.5 47.5q-14 19 -52 8q-18 -5 -36 -28q-14 -18 -16 -36z" />
<glyph unicode="&#xc4;" horiz-adv-x="1265" d="M108 621q0 103 52 153q61 43 121 85q97 74 246 74q43 0 142 -9q90 -8 137 -6q4 82 46 235q29 99 57 197q16 61 93 74q57 3 114 7q21 3 37 3q66 0 66 -47q0 -22 -13 -46q-68 -121 -243 -441q35 -16 73 -16q32 0 92.5 17t92.5 17q64 0 124 -51v-53q-11 8 -18 8 q-19 0 -26 -106q-7 -111 -50 -123q-108 -30 -237 -30q-72 0 -96 13q5 -80 -26 -157q-5 -14 -73 -149q-185 -369 -306 -369q-224 0 -310 141q-95 155 -95 579zM190 667q0 -218 47 -310q75 -147 312 -199q19 -4 37 -4q91 0 138 109q37 88 37 217q0 80 -14 132q-71 18 -273 88 q-144 49 -206 49q-78 0 -78 -82z" />
<glyph unicode="&#xc5;" horiz-adv-x="641" d="M6 281q0 142 170 284q154 128 312 158q14 5 37 11l80 76q14 45 215 490q39 19 94 28h44q16 -13 16 -44q0 -79 -93 -258q-78 -149 -166 -271q15 1 65 8q34 4 90 2q18 -9 56 -82.5t38 -102.5q0 -8 -4 -10q-76 18 -320 40q-213 -625 -437 -625q-71 0 -132 84q-65 90 -65 212 zM122 212q0 -71 73 -71q89 0 135 45q74 73 120 198q33 106 66 213q-56 -11 -56 -6q0 1 2 3q-66 -67 -318 -276q-22 -96 -22 -106z" />
<glyph unicode="&#xc6;" horiz-adv-x="1291" d="M15 862q-1 79 96 198q105 130 262 220q19 11 20 -2q0 -5 -24 -23q-50 -38 -84 -92q229 115 308 148q103 42 169 43q130 2 131 -99q1 -64 -102 -260q-159 -308 -177 -347q360 391 539 391q37 0 70 -16q69 -34 69 -210q0 -242 -177 -498q5 -11 5 -23q0 -65 -140 -58 q96 171 96 358q0 98 -41 143q-28 31 -69 31q-178 0 -659 -646q-157 -211 -183 -210q-57 2 -57 33q0 17 55 105q45 71 90 141q480 789 482 874q0 16 -11.5 28t-28.5 11q-79 -5 -340 -141.5t-271 -137.5q-28 0 -28 39z" />
<glyph unicode="&#xc7;" horiz-adv-x="755" d="M-159 -374q-1 182 221 544q40 65 49 96q15 51 39 103q-33 -28 -146 -138v70q63 67 126 135.5t100 128.5q62 100 131 265q90 213 216 452q22 42 75 42q21 0 37.5 -39.5t16.5 -87.5q0 -42 -14 -73q-37 -80 -305 -493q-54 -84 -123 -215q108 85 216 171q122 87 199 89 q27 1 36 -8.5t9 -40.5q0 -75 -37 -149q-20 -39 -132 -164q-98 -109 -98 -143q0 -20 26 -26q10 -2 21 -2q91 0 290 179v-72q-146 -131 -213 -179q-114 -81 -190 -81q-25 0 -55 21q-37 26 -37 67q0 46 51 104q194 221 196 289q1 37 -37 37q-64 1 -311 -305 q-88 -109 -163.5 -344t-115.5 -284q-21 -25 -39 -25q-39 0 -39 76z" />
<glyph unicode="&#xc8;" horiz-adv-x="1095" d="M-151 11q0 34 70 147q46 74 110 100q72 31 231 33q317 488 559 766q238 274 342 274q106 0 106 -95q0 -126 -187 -460l31 -31q-72 -91 -168 -157q-83 -57 -120 -58q-24 -1 -24 43q0 104 141 330q118 189 119 215q1 19 -16 19q-77 0 -334 -346q-180 -241 -344 -502 q502 -45 706 -154q-35 -40 -94 -136.5t-68 -106.5q-264 165 -741 171q-53 1 -158.5 -39t-128.5 -40q-32 0 -32 27z" />
<glyph unicode="&#xc9;" horiz-adv-x="430" d="M-256 -456q0 47 32 132q34 92 148 315q90 176 179 351l-28 -18q-30 -28 -60 -57q-14 -9 -27 -19q5 13 2 33.5t6 34.5q100 84 211 186q113 121 144 147q41 34 80 34q33 0 35 -82q2 -71 -53 -127q-29 -30 -118 -88q-82 -54 -112 -92q-168 -213 -255 -490q-21 -66 -21 -94 t24 -28q-2 0 63 12q72 13 172 161q34 51 168 285q97 168 145 206v-68q-101 -154 -222 -402q-103 -211 -157 -277q-87 -106 -217 -117q-53 -5 -65 -5q-74 0 -74 67z" />
<glyph unicode="&#xca;" horiz-adv-x="1480" d="M-104 862q-1 79 96 198q105 130 262 220q19 11 20 -2q0 -5 -24 -23q-50 -38 -84 -92q229 115 308 148q103 42 169 43q130 2 131 -99q1 -64 -102 -260q-159 -308 -177 -347q204 222 284 222q31 0 64 -40q41 -48 63 -59q73 -36 73 -157q0 -193 -250 -389q-32 -25 -32 -56 q0 -62 113 -88q27 -6 90 26q81 42 140 122q78 104 103 257q11 65 45.5 133.5t71.5 136.5l252 -18q30 -38 30 -71q0 -25 -21 -55q-208 -305 -309 -425q-244 -289 -420 -313q-50 -7 -118 70t-66 137q2 85 73 193t71 143t-34 66q-64 59 -101 59q-115 0 -429 -422 q-157 -211 -183 -210q-57 2 -57 33q0 17 55 105q45 71 90 141q480 789 482 874q0 16 -11.5 28t-28.5 11q-79 -5 -340 -141.5t-271 -137.5q-28 0 -28 39z" />
<glyph unicode="&#xcb;" horiz-adv-x="1286" d="M-159 -330q0 107 91 279q67 110 134 221q85 141 179 346q-124 -162 -147 -189q-39 -46 -103 -97v68q133 145 210 266q61 97 141 267q117 247 235 469q16 31 139 31q34 0 34 -24q0 -22 -28 -64q-131 -255 -327 -612q-54 -84 -123 -215q108 86 216 171q122 87 199 89 q71 1 71 -99q0 -56 -27 -109q-22 -45 -149 -164q-115 -108 -115 -138q0 -16 24 -21q10 -2 21 -2q123 0 318 235q15 42 98 154q116 157 220 158q61 1 61 -47q0 -75 -126 -198q-106 -104 -162 -127q-6 -53 30 -102q41 -54 105 -54q82 0 250 143v-63q-195 -252 -324 -252 q-75 0 -116 82q-36 71 -38 186q-17 -39 -178 -149q-174 -119 -251 -119q-25 0 -55 21q-37 26 -37 67q0 46 51 104q194 221 196 289q1 37 -37 37q-72 1 -319 -305q-88 -109 -165.5 -322t-117.5 -262q-21 -25 -39 -25q-39 0 -39 76z" />
<glyph unicode="&#xcc;" horiz-adv-x="1113" d="M125 1301q0 8 2 10q51 46 191 46q102 0 185 -26q-82 -111 -82 -208q0 -84 54 -111q90 109 322 171q159 43 250 43q108 0 203 -276q-77 45 -212 45q-116 0 -249 -31q-116 -28 -174 -60l216 -162q145 -117 182 -216q27 -72 27 -133q0 -108 -87 -204q-84 -92 -270 -197 q-139 -79 -259 -79q-130 -1 -212 106.5t-83 291.5q-1 166 63 329q66 167 186 290q-112 65 -191 204q-62 110 -62 167zM268 163q0 -148 139 -149q148 -1 250 131q188 242 188 366q0 67 -53 120q-30 29 -124 88.5t-142 106.5q-99 -108 -180 -320q-78 -206 -78 -343z" />
<glyph unicode="&#xcd;" horiz-adv-x="552" d="M-4 228q-5 29 0 76q170 143 280 323q-2 147 92 396q100 265 192 293q22 7 38 7q33 0 49 -39q14 -48 29 -96q10 -29 10 -85q0 -69 -22 -103q-120 -168 -265 -376q0 -217 21 -357q54 5 74 11q39 10 70 37q0 -24 6 -66q-57 -35 -144 -51q2 -13 2 -26q0 -100 -86 -168 q-77 -60 -170 -60q-61 0 -114 42q-57 44 -57 102q0 50 48 97q54 53 125 69q23 5 99 10q-5 77 -6 225q-46 -75 -271 -261zM183 144q-24 -31 3 -63q29 -35 72 -35q20 0 30 14q18 26 3 123q-28 -3 -55 -6q-32 -6 -53 -33zM402 774l92 136q55 85 58 128q2 19 -12.5 51.5 t-35.5 41.5q-17 7 -54 -72q-34 -71 -48 -285z" />
<glyph unicode="&#xce;" horiz-adv-x="1173" d="M53 865q-1 33 49 132q45 88 86 147q67 95 230 146q134 41 289 41q60 0 87 -22q24 -19 36 -70q3 -11 3 -23q0 -96 -173 -308l-228 -278q-27 -43 -27 -75q0 -51 72 -51q119 0 285 89q163 88 272 205q38 40 64 41q23 1 40 -36t17 -99q0 -33 -35 -91q-26 -44 -130 -165 q-114 -132 -160 -198q-78 -113 -78 -182q0 -90 -3 -40q2 -31 27 -44q13 3 85 43q66 37 67 33q-44 -57 -140 -155q-112 -116 -140 -121q-6 -1 -12 -1q-69 0 -69 124q0 63 22 119q33 84 110 182q33 43 230 274q-203 -159 -327 -210q-104 -43 -245 -43q-60 0 -97 45 q-40 47 -40 131t103 236q55 82 191 249q104 127 105 148q1 15 -16 15q-125 0 -272 -63q-156 -67 -231 -164q-4 -6 -11 -6q-12 0 -24 15t-12 30z" />
<glyph unicode="&#xcf;" horiz-adv-x="694" d="M5 275q0 50 16 81q81 122 285 454l234 408q113 193 133 193q22 0 44 -29q17 -29 34 -57t17 -58q0 -61 -83 -165l-194 -228q-135 -167 -221 -334q-69 -134 -141 -304q0 -27 27 -27q40 0 177 124q148 134 263 288q46 61 71 65q51 8 53 -92q0 -33 -117 -209 q-163 -245 -262 -434q68 72 137 143q152 155 260 243q1 -43 0 -67q-182 -189 -419 -527q-200 -285 -208 -286q-23 -3 -39 34q-14 33 -14 77q0 34 10 55q157 331 359 653q-231 -262 -298 -262q-43 0 -83.5 87.5t-40.5 173.5z" />
<glyph unicode="&#xd0;" horiz-adv-x="1343" d="M-30 367q0 54 86 144q28 29 73 35q236 32 403 63q352 64 454 126q160 97 160 189q0 87 -68 136q-64 46 -169 46q-92 0 -190 -37q-18 -7 -18 -18t22 -15q40 -2 107 -7q18 -2 19 -11q0 -9 -25 -12q-77 0 -305 -12q-47 -2 -49 51q-1 33 40 105q49 86 113 124q159 94 358 94 q149 0 244 -59q104 -64 105 -181q3 -254 -144 -388q-236 -218 -900 -256q285 -100 619 -272q259 -133 327 -185q42 -32 42 -148q0 -124 -56 -127q-210 123 -1240 599q-8 4 -8 16z" />
<glyph unicode="&#xd1;" horiz-adv-x="739" d="M0 219q0 101 121 340q391 770 482 764q78 -5 78 -39q0 -111 -146 -385q-171 -322 -396 -543v-120q134 149 232 244q196 190 266 192q28 1 55 -33t27 -61q0 -23 -106.5 -144.5t-106.5 -200.5q0 -46 45 -47q47 -1 213 129v-63q-253 -258 -342 -260q-78 -2 -78 92 q0 131 188 401q-140 -98 -300 -294q-133 -163 -154 -164q-78 -2 -78 192z" />
<glyph unicode="&#xd2;" horiz-adv-x="1382" d="M64 -38q0 111 95 217q81 91 151 105q38 8 84 8q170 0 392 -88q179 126 271 282q80 136 80 267q0 152 -95 209q-112 68 -240 68q-124 0 -255 -63q-100 -48 -185 -122q-70 -62 -73 -83q0 -6 13 -7q-1 0 82 12t131 13q-100 -28 -212 -78q-38 -18 -110 -37q-33 -1 -33 61 q0 123 68 244q60 106 229 222q216 147 425 147q93 0 180 -31q143 -52 202 -158q61 -109 58 -318q-2 -154 -147 -367q-132 -195 -284 -306q135 -92 204 -228q55 -111 48 -195q-6 -67 -177 -120q-120 82 -135 111q34 -17 111 -42q-84 226 -276 299q-189 -129 -372 -129 q-16 0 -60 1q-49 1 -108 36q-62 36 -62 70zM166 16q-4 -75 128 -80q74 -3 159 33q70 29 105 63q-123 36 -240 36q-75 0 -92 -3q-58 -9 -60 -49z" />
<glyph unicode="&#xd3;" horiz-adv-x="582" d="M-135 -423q0 60 25 113q63 133 373 345q-10 64 -36 87q-17 15 -81 36q-52 17 -53 53q-1 37 375 299q-172 -34 -295 -47q-100 -160 -176 -236v74q51 54 113 162q-56 8 -56 45q-1 44 79.5 125.5t125.5 81.5q37 0 37 -19q-1 -5 -4 -8q-25 -25 -25 -30q0 -8 27 -11 q36 0 124 20.5t105 20.5q52 0 52 -172q0 -14 -13 -27q-59 -38 -285 -208q60 -26 78 -44q27 -26 46 -89l193 170q4 -43 0 -67q-39 -58 -92 -103q-80 -69 -98 -88q-5 -131 -109 -274q-85 -117 -208 -209q-112 -83 -164 -83q-33 0 -45.5 21.5t-12.5 61.5zM-50 -358 q0 -23 20 -23q62 -1 149 88q99 100 134 234q-98 -68 -204 -176q-99 -100 -99 -123z" />
<glyph unicode="&#xd4;" horiz-adv-x="1341" d="M126 997q-1 79 96 198q105 130 262 220q19 11 20 -2q0 -5 -24 -23q-50 -38 -84 -92q108 43 120 46q31 9 96 10q130 2 131 -99q1 -115 -217 -435q210 220 395 337q161 103 260 103q60 0 97 -49q33 -44 33 -106q0 -143 -97 -345q-57 -119 -190 -332q-115 -184 -133 -238 q-5 -14 -5 -27q0 -45 55 -46q12 0 100 21.5t148 21.5q102 0 166 -55l-144 -297q-129 54 -310 54q-32 0 -87.5 -2t-77.5 -2q-74 0 -105 17q-9 5 -12 22q-2 22 -3 23q18 43 146 254q144 236 210 369q108 213 108 321q0 81 -60 105q-28 11 -65 11q-187 0 -396 -266 q-51 -68 -102 -135q-59 -76 -81 -75q-23 1 -62.5 39t-39.5 57q0 29 145 246q135 201 135 233q0 26 -50 23q-79 -6 -209.5 -74.5t-140.5 -69.5q-28 0 -28 39z" />
<glyph unicode="&#xd5;" horiz-adv-x="748" d="M6 256q0 91 87 215q115 164 190 164q70 0 71 -45q0 -18 -104.5 -140.5t-104.5 -162.5q0 -28 19 -29q12 -1 46 38q353 400 476 400q15 0 31 -45.5t16 -87.5q0 -61 -40 -125l-96 -138q-150 -208 -341 -496q-28 -57 -28 -80q0 -32 52 -32q77 0 176 144q16 23 171 287 q100 170 162 208l3 -63q-107 -144 -214 -385q-101 -228 -155 -293q-97 -117 -263 -117q-74 0 -74 71q0 -19 5 75q4 87 160 320q228 340 266 409t3 111q-129 -87 -230 -200q-36 -41 -124 -160q-48 -66 -74 -66q-32 0 -59 67t-27 156z" />
<glyph unicode="&#xd6;" horiz-adv-x="1386" d="M-32 8q37 105 280 239q26 12 104 47q137 104 494 386q29 151 34 421q-222 -31 -439 -186q-35 -25 -61 -56l48 -6q89 1 97 1q-13 -18 -229 -79q-86 -24 -101 -24q-7 0 -7 4q0 -8 5 20q11 58 79 142q65 79 152 145q122 93 315 173q205 85 326 85q57 0 63 -18 q35 -62 -7 -405l222 183q118 98 151 122q70 53 95 54q17 1 23 -6.5t4 -23.5q-22 -49 -150 -187q-31 -21 -98 -49q-82 -59 -261 -207q-20 -192 -93 -614q-2 -15 5 -17q-1 0 17 2q11 1 13 -8q11 -43 11 -63q0 -37 -27 -72q-29 -38 -86 -47q-18 -3 -87 -3q-32 -13 -274 -13 q-157 0 -393 5.5t-213 5.5q-29 0 -12 49zM200 58q-1 8 97 8q31 0 329 -7q198 -5 200 4q2 4 -32 9q-37 6 -37 36q0 15 8 36q29 144 64 410q-142 -109 -355 -278q-117 -92 -274 -218z" />
<glyph unicode="&#xd7;" horiz-adv-x="758" d="M-79 -26q-1 38 58 108.5t92 71.5q17 -2 22 -4l378 307l-9 94q-15 5 -30 5q-45 0 -130 -64q-98 -73 -210 -173q-82 -72 -91 -73q-13 0 -16 29q0 11 96 106q118 117 140 142q74 86 182.5 160.5t156.5 74.5q40 0 55 -49q8 -28 12 -104q80 59 263 258q207 226 288 298 q49 44 139 86q74 35 89 35q37 0 40 -33q0 -34 -54 -110.5t-81 -77.5q-34 -1 -57 8l-620 -547q0 -11 -3 -94.5t-2 -127.5q1 -68 9 -79q29 -38 29 -83q0 -85 -89 -171q-3 -1 -124 4q-152 6 -249 6q-212 0 -264 -27q-19 -10 -20 24zM84 44q41 12 140 12q171 0 242 -20 q-5 41 1 179q7 143 5 164q-1 -1 -180 -165q-166 -152 -208 -170z" />
<glyph unicode="&#xd8;" horiz-adv-x="1443" d="M76 890q0 48 26 120q27 76 60 110q69 72 260 157q188 85 274 85q43 0 84 -54.5t41 -113.5q0 -25 -144 -215q-188 -250 -266 -372q-144 -226 -144 -337q0 -53 33 -86q29 -28 63 -28q198 0 386 311q141 232 234 552q-19 59 9 121q27 59 75 124q58 79 95 85q38 6 38 -37 q0 -63 61 -64q6 0 92.5 4t133.5 3q68 -1 75 -12q6 -5 11 -10q10 -9 7 -19q-17 -63 -76 -164q-61 -105 -86 -104q-177 9 -353 56q-26 -157 -51 -314q-55 -270 -136 -396q-49 -75 -49 -114q0 -27 20 -43q5 -5 -11 -17t-34 -10q-31 3 -60 36q-162 -175 -410 -175q-61 0 -119 80 q-63 87 -63 199q0 167 212 514q109 167 217 334q0 15 -20 15q-64 0 -152 -54l-104 -64q-18 -6 -18 -19q0 -15 21 -15l66 27.5t84 29.5q-66 -46 -176 -99q-128 -61 -178 -61q-28 0 -28 34z" />
<glyph unicode="&#xd9;" horiz-adv-x="654" d="M6 260q-1 38 7 72q13 58 111 182q84 106 148 165q12 11 52 11q98 0 102 -28q0 -32 -70 -117q-83 -102 -206 -195q-24 -79 -24 -125q0 -47 26 -48l18 -2q17 -2 32 -2q136 0 270 127q35 33 80 163q55 156 55 294q0 124 -47 211q-42 78 -36 184q5 91 108 126q58 20 122 18 q113 -3 169 -33q45 -24 89 -91q11 -17 11 -41q0 -90 -143 -271q-3 -2 -4 -2q-19 0 -4 50q16 52 16 94q0 87 -64 98q-69 11 -112 -24q-22 -18 -23 -161q-2 -186 -5 -207q-31 -222 -47 -275q-28 -93 -125 -237q-70 -103 -169.5 -165.5t-186.5 -62.5q-54 0 -102 99 q-46 94 -48 193z" />
<glyph unicode="&#xda;" horiz-adv-x="1260" d="M1 60q1 85 17 95q95 42 321 172q-45 -67 -150 -145q49 -22 122 -22q179 0 399 105q214 102 216 179q1 62 -250 76q-41 2 -296 2q-108 0 -137 7q-32 8 -33 38q-1 41 35 85q41 50 98 56q364 40 473 70q231 66 228 214q-2 104 -213 104q-183 0 -233 -12q-98 -24 -227 -132 q-4 -3 -4 -7q0 -14 43 -48q60 -48 66 -55q-49 13 -97 25q-77 20 -99 20q-8 0 -10 -2q-2 148 162 303q84 79 189 104q88 22 288 23q139 1 228 -65q93 -68 93 -178q0 -187 -241 -300q-187 -88 -454 -109q-26 -2 -26 -14q0 -17 66 -17h75q424 -3 424 -235q0 -182 -236 -327 q-254 -156 -626 -158q-188 -1 -204 46q-8 23 -7 102z" />
<glyph unicode="&#xdb;" horiz-adv-x="556" d="M-97 -417q0 62 30 128q56 126 231 285q87 171 174 341q48 98 49 129q1 22 -21 22q-31 0 -183 -113q-97 -75 -195 -150q-2 13 -4 25q4 49 4 44q0 29 23 92q34 94 94 145q107 92 241 153q110 51 158 51q57 0 58 -53q1 -50 -252 -569q143 97 264 204l2 -71 q-185 -159 -356 -330q-200 -387 -289 -389q-28 -1 -28 56z" />
<glyph unicode="&#xdc;" horiz-adv-x="1280" d="M-13 1084q0 26 38 138q22 65 50 98q47 56 162 115q39 20 41 4q0 -26 -37 -51q-49 -32 -57 -44q38 6 104 6q74 0 233 -9.5t206 -9.5q123 0 123 -92q0 -103 -22.5 -164t-94.5 -153q-102 -132 -229 -310q-146 -206 -162 -252q-15 -41 -15 -72q0 -67 69 -72q171 -12 355 125 q94 69 266 253q78 83 141 83q53 0 53 -81q0 -57 -32 -110q-54 -84 -107 -168q-50 -80 -50 -110q0 -25 31 -28q65 -7 252 139l-2 -69q-288 -294 -412 -287q-129 8 -129 141q0 40 12 85q-195 -152 -298 -187q-59 -20 -215 -20q-63 0 -120 56q-63 60 -63 142q0 103 129 292 q68 99 204 265q85 102 169 204q23 27 47 77q1 17 -126 24q-19 1 -41 1q-44 0 -186 -10q-137 -9 -236 -8q-51 0 -51 59z" />
<glyph unicode="&#xdd;" horiz-adv-x="788" d="M-163 963q14 20 30 86q14 56 44 80q45 36 148 36q86 0 258 -25q149 -23 152 -20q6 6 17 6q22 0 49 -24t31 -49q7 -47 -171 -278q-206 -268 -264 -425q-15 -39 -15 -79q0 -53 29 -54q37 -1 254 203q21 20 174 203q104 125 153 125q23 0 31 -12q10 -15 10 -64 q0 -36 -21 -68l-114 -160q-96 -143 -96 -204q0 -51 41 -52q57 -1 217 129v-67q-190 -176 -228 -205q-64 -50 -120 -51q-84 -2 -84 100q0 59 106 289q-148 -198 -219 -272q-78 -82 -125 -82q-55 0 -95 68t-42 163q-1 40 7 72q52 212 302 568q7 10 -229 32t-230 31z" />
<glyph unicode="&#xde;" horiz-adv-x="1372" d="M-26 270q0 64 19 137q57 212 470 467q-197 114 -197 254q0 39 13 83q26 87 96 138.5t159 51.5q18 0 37 -2l-4 -22q-152 -30 -152 -134q0 -88 324 -213q187 108 432 108q51 0 108 -25q62 -28 62 -61q0 -111 -95 -217q-81 -91 -151 -105q-28 -6 -64 -6q-170 0 -448 110 q-173 -72 -281 -208q-100 -126 -100 -241q0 -82 56 -124q83 -63 208 -63q77 0 165 25q169 48 294 48q130 0 224 -49q61 -32 116 -162q50 -119 50 -194q0 -28 -10 -34q-26 -15 -143 -57q-129 -46 -162 -46q-4 0 -7 1q-170 72 -170 76t22 4q16 0 67.5 -8.5t80.5 -8.5 q20 0 36 3q48 65 48 228q0 115 -36 138q-16 10 -39 10q-52 0 -171 -70q-166 -97 -229 -127q-133 -61 -239 -61q-57 0 -110 17q-279 88 -279 339zM847 982q123 -36 240 -36q72 0 89 3q61 9 63 49q2 37 -48 52q-34 10 -80 8q-82 -3 -162 -25.5t-102 -50.5z" />
<glyph unicode="&#xdf;" horiz-adv-x="661" d="M-11 -429q0 91 94 225l140 198q91 142 149 309q12 34 12 77q0 134 -93 154q-75 -44 -169 -159.5t-119 -129.5q-37 18 -12 53q53 47 126 167q84 137 118 176q70 82 145 82q198 0 198 -171q0 -152 -132 -354q-209 -320 -273 -459q-8 -18 -8 -30q0 -21 21 -21q44 0 90 60 q92 139 185 279q155 232 228 297l9 -66q-97 -103 -305 -504q-149 -286 -309 -286q-95 0 -95 103z" />
<glyph unicode="&#xe0;" horiz-adv-x="1370" d="M16 862q-1 79 96 198q105 130 262 220q19 11 20 -2q0 -5 -24 -23q-50 -38 -84 -92q229 115 308 148q103 42 169 43q130 2 131 -99q1 -77 -71 -211q-50 -94 -431 -737q359 451 632 712q246 235 335 238q19 1 50.5 -56t31.5 -97q0 -106 -133 -287q-332 -452 -334 -635 q-1 -66 70 -67q48 0 145 57q103 61 194 150l2 -78q-349 -355 -515 -355q-113 0 -115 129q-2 142 95 307q115 193 230 385q111 192 113 238q1 21 -22 21q-61 0 -227 -162q-200 -196 -465 -552q-157 -211 -183 -210q-23 1 -62.5 39t-39.5 57q0 17 55 105q45 71 90 141 q354 581 356 676q0 16 -11.5 28t-28.5 11q-79 -5 -340 -141.5t-271 -137.5q-28 0 -28 39z" />
<glyph unicode="&#xe1;" horiz-adv-x="784" d="M6 256q0 91 87 215q115 164 190 164q70 0 71 -45q0 -18 -104.5 -140.5t-104.5 -162.5q0 -22 13 -23q7 0 46 54q70 98 220 223q185 153 292 155q15 0 30 -43t17 -90q2 -65 -108 -176q-119 -122 -130 -162q-12 -44 24 -45q97 -2 251 139v-69q-265 -262 -372 -264 q-70 -1 -71 107q0 36 100 180t98 201q-129 -51 -237 -167q-56 -59 -142 -186q-60 -88 -84 -88q-32 0 -59 67t-27 156z" />
<glyph unicode="&#xe2;" horiz-adv-x="1250" d="M45 120q0 68 74 181q70 107 103 110q20 2 65 -4q54 -7 51 -19q-2 -8 -51 -29t-49 -28q0 -2 1 -3q149 -97 387 -274q208 56 339 259q113 176 113 351q0 93 -38 137q-49 56 -189.5 106t-253.5 50q-43 0 -74 -9q-81 -23 -139 -99q-55 -72 -55 -147q0 -22 6 -42q32 8 120 104 q-14 -52 -53 -115q-31 -53 -63 -105q-53 3 -93.5 48t-42.5 94q-7 224 148 370q92 87 221 142q140 60 277 60q95 0 178 -30q142 -51 201 -158t59 -318q0 -299 -225 -539q-199 -213 -391 -222q92 -110 92 -259q0 -69 -27 -198l-54 -20q-124 262 -393 439q-130 86 -213 116 q-31 11 -31 51z" />
<glyph unicode="&#xe3;" horiz-adv-x="548" d="M-29 -364q0 45 13 92q31 109 224 416q-105 17 -138 32q-69 30 -66 96q8 190 193 325q126 91 233 111q37 -5 38 -64q-34 -95 -316 -284q-2 -12 -2 -22q0 -54 58 -72l104 -18q11 -3 17 -12q7 -11 -1 -20q-57 -64 -145 -242q-95 -192 -95 -267q0 -32 20 -35q68 -10 141 109 q12 20 137 268q93 185 176 275l6 -72q-100 -145 -189 -354q-119 -279 -122 -286q-64 -123 -142 -146q-12 -4 -25 -4q-48 0 -83.5 49t-35.5 125z" />
<glyph unicode="&#xe4;" horiz-adv-x="1259" d="M66 837q0 25 6 79q22 195 179 274q352 177 679 177q122 0 219 -87q122 -111 122 -317q0 -171 -148 -436l-196 -328l33 -25q-123 -275 -221 -276q-65 -1 -65 88q0 59 35 142q19 46 184 279q161 226 208 352q70 189 -55.5 258.5t-245.5 69.5q-7 0 -40 -155 q-43 -199 -80 -314q-61 -187 -129 -249q-5 -9 -16 -9q-34 0 -97 66t-63 99q0 14 14 15q93 10 156 114q47 77 82 213q20 93 41 186q4 17 -28 19q-14 1 -35 -1q-190 -22 -314 -102q-101 -65 -101 -118q0 -11 8 -17l80 -8q66 -9 83 -35q-63 -3 -126 -7q-93 -5 -131 1.5 t-38 51.5z" />
<glyph unicode="&#xe5;" horiz-adv-x="1120" d="M0 246q-2 142 203 374q93 105 141 107q24 1 57 -13q37 -16 37 -34q0 -123 -284 -373q-22 -68 -23 -112q-1 -39 29 -39q89 0 465 516q6 8 29 8q67 0 67 -39q0 -1 -90.5 -194.5t-91.5 -249.5q-1 -45 34 -45q71 0 189 153l226 316q46 61 71 65q51 8 53 -92q0 -33 -117 -209 q-163 -245 -262 -434q112 113 397 366q1 -43 0 -67q-177 -184 -401 -472q-178 -229 -190 -231q-23 -3 -39 34q-14 33 -14 77q0 34 10 55q46 97 76 151q50 90 164 272q-121 -115 -129 -121q-41 -31 -103 -31q-76 0 -76 122q0 63 16 162q-75 -88 -151 -176q-87 -92 -139 -92 q-44 0 -96 72q-57 80 -58 174z" />
<glyph unicode="&#xe6;" horiz-adv-x="1216" d="M-24 -44q0 17 14 41q34 77 88 187q18 74 68 180q23 23 43 23q30 0 53 -47q36 -74 47 -89q33 -45 78 -44q276 3 307 89q15 41 15 74q0 100 -144 136q-32 8 -280 34q-162 18 -189 69q-15 29 -15 57q0 68 98 155l210 168q134 114 194 222q79 144 158 144q36 0 78 -28 q13 -8 13.5 -56t10.5 -56q299 -235 299 -494q0 -159 -100 -269q-125 -137 -344 -252q146 -16 304 -66.5t224 -58.5q-50 -57 -130 -145q-48 -52 -102 -52q-18 0 -41 4l-288 68q-227 52 -342 53q-97 1 -188 -39t-99 -40q-40 0 -40 32zM252 806q0 -26 140 -69q180 -56 261 -108 q140 -89 140 -226q0 -30 -7 -63q187 138 187 261q0 97 -130 214l-228 196q-40 -57 -169 -88q-132 -33 -188 -103q-6 -7 -6 -14z" />
<glyph unicode="&#xe7;" horiz-adv-x="768" d="M4 264q-2 116 76 212q111 136 273 206q130 56 255 56q64 0 64 -67q0 -25 -16 -47q7 -20 24 -57q28 -50 28 -77q0 -47 -32 -118q-8 -17 -148 -176q-85 -139 -183 -318q-89 -161 -90 -170q0 -12 14 -12q79 0 123 56q47 60 210 322q129 210 186 248v-72q-160 -224 -296 -578 q-33 -86 -128.5 -142t-205.5 -56q-73 0 -74 131q0 39 130.5 245.5t130.5 236.5q0 3 -1 5q-75 -88 -139 -88q-27 0 -58 12q-51 19 -96.5 98.5t-46.5 149.5zM121 213q0 -21 15 -44q20 -29 52 -29q101 0 224 88q44 48 79 128q26 64 53 128q50 100 50 120q0 9 -8 9 q-34 0 -185 -104q-183 -126 -237 -153q-18 -21 -32 -74q-11 -45 -11 -69z" />
<glyph unicode="&#xe8;" horiz-adv-x="1540" d="M-6 862q-1 79 96 198q105 130 262 220q19 11 20 -2q0 -5 -24 -23q-50 -38 -84 -92q229 115 308 148q103 42 169 43q130 2 131 -99q0 -8 1 -22v-17q0 -44 -67 -162q-12 -21 -372 -630q593 833 903 833q19 0 50.5 -57t31.5 -96q0 -223 -341 -564q-3 -7 -3 -14q0 -22 28 -38 t60 -16q9 0 136 38.5t209 38.5q107 0 160 -62l-144 -297q-86 45 -297 62q-200 17 -277 68q-11 -9 -24 -42q-15 -40 -16 -42q36 -81 36 -159q0 -82 -36.5 -135t-88.5 -53q-113 0 -115 129q-1 93 108 306q63 124 230 386q126 199 127 238q1 21 -22 21q-70 0 -272 -197 q-257 -251 -552 -677q-146 -211 -183 -210q-23 1 -62.5 39t-39.5 57q0 17 55 105q45 71 90 141l332 540q155 256 156 296q0 16 -11.5 28t-28.5 11q-79 -5 -340 -141.5t-271 -137.5q-28 0 -28 39z" />
<glyph unicode="&#xe9;" horiz-adv-x="831" d="M-13 256q0 91 87 215q115 164 190 164q70 0 71 -45q0 -18 -104.5 -140.5t-104.5 -162.5q0 -28 19 -29q12 -1 46 38q353 400 476 400q15 0 31 -43.5t16 -89.5q0 -163 -219 -340l-18 -15q0 -8 120 -8q91 0 136 24q19 10 114 91v-73q-132 -171 -150 -187q-69 -65 -174 -65 q-115 0 -157 25q-39 22 -39 79q0 27 90.5 134t90.5 184q0 24 -7 47q-129 -87 -230 -200q-36 -41 -124 -160q-48 -66 -74 -66q-32 0 -59 67t-27 156z" />
<glyph unicode="&#xea;" horiz-adv-x="1408" d="M27 784q-4 37 34.5 135t75.5 144q90 111 306 193q197 75 343 75q123 0 131 -92q4 -40 4 -70q0 -113 -93 -247q-70 -101 -203 -315q-126 -202 -156 -258q-17 -32 -17 -58q0 -40 36 -41q68 -1 356 314q112 123 302 361q106 135 213 269q34 40 60 41q56 1 69 -135 q3 -32 -27 -91l-218 -388q-166 -312 -157 -416q6 -73 71 -74q70 -1 296 188l4 -69q-255 -286 -387 -287q-156 -1 -170 162q-15 180 320 735q-197 -239 -347 -411q-202 -232 -258 -289q-153 -156 -224 -156q-60 0 -102 44q-44 48 -51 132q-9 104 103 292q59 100 181 265 q75 102 151 204q51 73 51 97q-1 15 -18 15q-58 0 -304.5 -154t-324.5 -154q-46 0 -50 39z" />
<glyph unicode="&#xeb;" horiz-adv-x="764" d="M6 260q-1 38 7 72q16 69 96 181q86 119 163 166q14 9 54 9q100 0 100 -26q0 -100 -279 -305q-17 -56 -17 -91q0 -48 34 -49q25 -1 99 41q91 51 166 126q31 31 167 223q100 141 149 141q23 0 31 -12q10 -15 10 -64q0 -36 -21 -68l-114 -160q-96 -143 -96 -204 q0 -51 41 -52q28 0 77 36q1 1 140 113v-67q-114 -108 -228 -215q-68 -60 -120 -61q-84 -2 -84 100q0 30 23 75q70 141 79 161q-225 -301 -340 -301q-55 0 -95 68t-42 163z" />
<glyph unicode="&#xec;" horiz-adv-x="1223" d="M45 1026q93 23 186 47q84 19 150 19q21 0 43 -2q42 -3 71.5 -32.5t29.5 -71.5q0 -73 -145 -224.5t-145 -190.5q0 -13 8 -22q42 -46 108 -46q128 0 307 159q193 172 397 488q137 211 183 210q57 -2 57 -33q0 -17 -55 -105q-45 -71 -90 -141q-480 -789 -482 -874 q0 -16 11.5 -28t28.5 -11q382 24 512 36q28 0 28 -39q2 -193 -295 -364q-19 -11 -20 2q0 5 24 23q50 38 84 92q-114 14 -205 14q-64 0 -138 -8t-98 -8q-130 -2 -131 99q-1 64 102 260q159 308 177 347q-376 -409 -574 -409q-50 0 -71 34q-40 66 -40 127q0 73 67 183 q80 122 159 245q22 36 22 67q0 89 -157 89q-48 0 -107 -10z" />
<glyph unicode="&#xed;" horiz-adv-x="768" d="M2 248q0 70 19 108q58 120 115 240q75 146 111 146q22 0 43 -30q18 -28 35 -56q21 -32 21 -64q0 -97 -184 -196q-66 -86 -66 -161q0 -28 9 -47q0 -24 27 -27q134 -14 396 275q27 30 208 464q184 438 204 465q46 61 71 65q21 3 40 -89q16 -78 17 -141q1 -47 -78 -216 q-116 -250 -342 -582q-90 -151 -180 -303q-147 -248 -204 -387q19 -18 37 -18q13 0 75 50q42 33 190 275.5t222 302.5q1 -56 0 -80q-108 -128 -203.5 -356.5t-147.5 -291.5q-101 -122 -289 -122q-25 0 -45 45q-19 42 -19 87q0 27 8 44q55 116 346 580q-207 -262 -333 -262 q-40 0 -72 95q-31 90 -31 187z" />
<glyph unicode="&#xee;" horiz-adv-x="1323" d="M20 16q-1 41 40.5 101.5t80.5 77.5q35 15 83 19q39 3 40 -9q0 -4 -10 -11l-8 -4q-12 -4 -33 -13q-10 -3 -20 -9q-5 -3 -7 -12q0 -21 207 -21q344 0 498 60q89 35 160 94q-48 90 -188 142q-65 24 -130 34q-203 32 -377 131q-15 9 -32 34t-17 50q-3 195 105 315 q95 106 329 162q184 45 371 45q143 0 221.5 -22t79.5 -68q1 -71 -21 -116q-20 -40 -52 -60q-16 -10 -74 -31q-75 -28 -110 -46q-55 -33 -120 -68q-9 0 -10 8q0 48 123 112q53 28 55 37q0 13 -61 13q-383 2 -590 -120q-90 -53 -90 -110q0 -41 85 -69q59 -15 118 -29 q125 -33 229 -78q283 -123 285 -279q1 -121 -108 -220q-56 -51 -122 -79q-127 -55 -343 -81q-103 -12 -199 -13q-386 -2 -388 133z" />
<glyph unicode="&#xef;" horiz-adv-x="1179" d="M5 275q0 50 16 81q49 96 172 233.5t165 137.5q27 0 52 -27t26 -59q2 -81 -280 -322q-13 -37 -27 -83q0 -13 22.5 -28.5t36.5 -15.5q52 0 165 94q148 122 293 335q41 60 71 65q51 8 53 -92q0 -33 -40 -71q-57 -55 -94 -131q38 38 180 131q192 126 283 129q27 1 36 -9 t9 -40q0 -75 -37 -149q-21 -43 -132 -155q-98 -100 -98 -130q0 -26 42 -26q49 0 130 63q28 23 165 146v-72q-107 -97 -213 -194q-117 -96 -190 -96q-25 0 -55 21q-37 26 -37 67q0 46 51 104q131 149 141 162q54 68 55 103q1 37 -37 37q-55 0 -167 -78q-101 -70 -195 -163 q-88 -136 -235 -441q-121 -253 -135 -255q-23 -3 -39 34q-14 33 -14 77q0 34 10 55q93 197 323 563q-281 -262 -348 -262q-43 0 -83.5 87.5t-40.5 173.5z" />
<glyph unicode="&#xf0;" horiz-adv-x="1174" d="M-104 862q-1 79 96 198q105 130 262 220q19 11 20 -2q0 -5 -24 -23q-50 -38 -84 -92q229 115 308 148q103 42 169 43q130 2 131 -99q1 -64 -102 -260q-159 -308 -177 -347q305 377 467 501q127 97 277 108q19 1 50.5 -56t31.5 -97q0 -167 -91 -285q-32 -43 -222 -216 q-35 -31 -35 -98q0 -72 43 -125q49 -62 136 -62q21 0 44 4l2 -78q-79 -45 -167 -45q-90 0 -200 50q-69 32 -81 39q-41 26 -41 59q0 15 7 31q38 84 136 185q122 126 150 166q71 101 71 219q0 23 -22 21q-98 -7 -332 -233q-253 -243 -531 -616q-157 -211 -183 -210 q-57 2 -57 33q0 17 55 105q45 71 90 141q480 789 482 874q0 16 -11.5 28t-28.5 11q-79 -5 -340 -141.5t-271 -137.5q-28 0 -28 39z" />
<glyph unicode="&#xf1;" horiz-adv-x="831" d="M-135 -330q0 106 99 279q71 110 142 221q141 236 246 463q-229 -279 -348 -402v70q133 144 241 286q80 106 159 211q66 85 106 113q47 33 113 33q34 0 34 -24q0 -22 -28 -64q-58 -62 -182 -225q-54 -84 -123 -215q108 85 216 171q122 87 199 89q27 1 36 -8.5t9 -40.5 q0 -75 -37 -149q-20 -39 -132 -164q-98 -109 -98 -143q0 -20 26 -26q10 -2 21 -2q91 0 290 179v-72q-146 -131 -213 -179q-114 -81 -190 -81q-25 0 -55 21q-37 26 -37 67q0 46 51 104q194 221 196 289q1 37 -37 37q-80 1 -327 -305q-88 -109 -173.5 -322t-125.5 -262 q-21 -25 -39 -25q-39 0 -39 76z" />
<glyph unicode="&#xf2;" horiz-adv-x="1260" d="M-117 774l396 18q-37 122 -50 111q-3 201 117 315q81 76 225 103q106 19 324 21q138 1 229 -65.5t92 -177.5q1 -168 -56 -226q-74 -76 -351 -129q-26 -5 -26 -16t31 -14q345 -35 345 -317q0 -182 -236 -327q-254 -156 -626 -158q-188 -1 -204 46q-8 23 -7 102q1 85 17 95 q95 42 321 172q-45 -67 -150 -145q49 -22 122 -22q179 0 399 105q214 102 216 179q0 6 1.5 20t1.5 22q0 117 -360 117q-326 0 -573 -63q-18 -5 -90 73q-78 86 -108 161zM402 868q0 -92 138 -85q131 7 282 59q206 71 208 177q1 50 -52 78q-58 31 -161 26q-183 -8 -306 -95 q-109 -77 -109 -160z" />
<glyph unicode="&#xf3;" horiz-adv-x="688" d="M-139 -450q0 96 77 198q46 61 157 162q10 9 65.5 16t76.5 24q18 15 114 180q93 160 104 164l-178 -151q-131 -111 -170 -111q-43 0 -82 96q-37 92 -37 179q0 42 11 67q42 92 174 233q127 138 163 138q27 0 52 -27t26 -59q2 -94 -280 -322q-13 -37 -27 -83q0 -27 27 -27 q53 0 203 112q181 134 287 300q48 61 71 65q51 8 53 -92q1 -38 -24 -68q-107 -127 -151 -226q-59 -134 -89 -181l242 196v-65l-332 -293q-84 -145 -184 -276q-158 -205 -242 -205q-19 0 -61 19q-46 20 -46 37z" />
<glyph unicode="&#xf4;" horiz-adv-x="1203" d="M78 886q0 25 6 79q23 211 179 274q91 37 218 66q141 32 216 26q90 -7 117 -31q18 -16 44 -92l31 -92q20 -59 -8 -107q-106 -148 -250 -355q13 4 46 34q37 34 50 41q123 -28 317 -52q161 -19 166.5 -23t5.5 -17q0 -49 -41 -113q-51 -79 -123 -96q-45 -10 -126 0l-196 28 q-72 13 -186 53q-54 -113 -147 -310l33 -25q-123 -275 -221 -276q-65 -1 -65 88q0 59 35 142q62 150 216 388q170 263 381 522q-96 18 -209 13q-161 -7 -272 -61q-94 -46 -94 -89q0 -11 9 -18l78 -14q64 -12 85 -29q-63 -3 -126 -7q-93 -5 -131 1.5t-38 51.5z" />
<glyph unicode="&#xf5;" horiz-adv-x="469" d="M3 132q0 18 2.5 63t2.5 69q-1 120 108 268q116 157 220 158q61 1 61 -47q0 -78 -112 -191q-104 -104 -165 -116q-26 -34 -26 -67q0 -80 137 -80q87 0 133 25q29 15 130 101v-73q-63 -94 -125 -187q-56 -65 -199 -65q-100 0 -138 40q-29 32 -29 102z" />
<glyph unicode="&#xf6;" horiz-adv-x="1280" d="M8 507q0 43 20 77q119 206 395 300q186 63 393 64q61 81 122 184q1 22 -26 22q-65 0 -222 -44q-201 -56 -344 -140q-12 -7 -30 -7q-60 0 -60 58q0 3 23 64q27 70 41 141q6 33 98 94q88 59 121 59q6 0 8 -3q13 -22 -29 -48q-57 -36 -65 -47q196 74 388 74q56 0 112 -6 q106 -12 106 -131q0 -43 -20 -76q-32 -55 -120 -199q205 -14 291 -102q77 -80 77 -244q0 -219 -162 -347q-183 -146 -547 -149q-31 0 -135 12l-45 -87q17 -26 17 -45q0 -16 -17 -41q-107 -162 -170 -162q-44 0 -45 66q-2 97 148 294q-98 38 -99 104q-1 61 77.5 115.5 t218.5 86.5q50 84 148 256q-242 -7 -389 -93q-108 -64 -162 -168q-22 -61 -44 -121q-19 31 -55 104q-18 43 -18 85zM560 318q82 -11 162 -11q196 0 328 61.5t134 156.5q2 96 -82 133q-89 40 -326 42q-15 -31 -128 -239l131 15q15 0 16 -15q0 -13 -26 -18l-152 -29z" />
<glyph unicode="&#xf7;" horiz-adv-x="1089" d="M5 275q0 50 16 81q49 96 172 233.5t165 137.5q27 0 52 -27t26 -59q2 -81 -280 -322q-13 -37 -27 -83q0 -13 22.5 -28.5t36.5 -15.5q38 0 120 68q116 96 235 280q71 110 141 280q14 34 158 413q12 31 66 76q49 40 67 43q51 8 53 -92q1 -40 -199 -404q-246 -449 -253 -464 q80 80 151 137q163 132 253 135q24 1 45 -48q19 -44 19 -80q0 -32 -5 -42q-11 -21 -23 -42q-22 -44 -136 -155q-103 -100 -103 -129q0 -18 26 -23q10 -2 21 -2q91 0 290 179v-72q-146 -131 -213 -179q-114 -81 -190 -81q-25 0 -55 21q-37 26 -37 67q0 46 51 104 q131 149 141 162q54 68 55 103q1 37 -37 37q-51 0 -129 -69q-11 -10 -157 -154q-88 -145 -228 -457q-114 -255 -128 -257q-23 -3 -39 34q-14 33 -14 77q0 34 10 55q58 111 116 221q93 179 157 342q-221 -262 -288 -262q-43 0 -83.5 87.5t-40.5 173.5z" />
<glyph unicode="&#xf8;" horiz-adv-x="1195" d="M-32 341q0 45 26 97q23 45 40 54q3 1 6 1q4 0 66 -45.5t136 -51.5q16 9 26 34q8 19 16 39q-109 36 -110 105q-2 107 270 176q43 69 139 221q-59 9 -156 -28q-26 -10 -29 17q0 100 89 234q88 31 247 26q74 100 87 114q34 37 65 38q14 0 14 -14q0 -17 -70 -150 q194 -21 302.5 -111t109.5 -235q1 -202 -185.5 -315.5t-504.5 -116.5q-59 0 -173 19q-17 -25 -49 -77q248 -116 444 -116q140 0 296 48q-92 -200 -114 -228q-33 -41 -115 -42q-217 -2 -328 27q-70 17 -299 115q-14 -26 -18 -48l-2 -22q10 -19 10 -46q0 -74 -56 -152 q-57 -82 -116 -82q-40 0 -41 63q-1 40 135 303q-117 9 -152 112q-6 17 -6 37zM491 649q28 -14 147 -29q496 -5 496 188q0 63 -66 108q-91 63 -288 63q-35 0 -72 -2q-19 -17 -139 -197q148 18 150 -8q1 -9 -7 -12q-45 0 -169 -27q-19 -32 -52 -84z" />
<glyph unicode="&#xf9;" horiz-adv-x="555" d="M-76 -289q0 145 127 453q-48 64 -49 127q-1 82 100 127q48 75 152 196q103 254 244 500q66 115 92 115q42 0 42 -109q0 -38 -10 -71q-58 -192 -216 -444q-88 -133 -175 -267q104 -90 140 -162q105 39 202 145v-75q-68 -68 -89 -86q-35 -29 -87 -56q0 -74 -9 -155 q-18 -163 -134.5 -312t-224.5 -149q-41 0 -73 64.5t-32 158.5zM49 -209q0 -60 17.5 -103t44.5 -44q31 -1 70 40q48 51 71 136q29 108 29 169q0 40 -9 79q-92 11 -147 32q-75 -187 -76 -309z" />
<glyph unicode="&#xfa;" horiz-adv-x="1174" d="M80 371q-2 316 315 626q135 132 274 213.5t228 81.5q67 0 107 -41q37 -39 73 -143q-167 -5 -305 -82q121 29 169 29q58 0 96 -24q83 -52 83 -167q0 -193 -126 -426q-143 -264 -360 -386q-139 -79 -259 -79q-130 -1 -212 106.5t-83 291.5zM219 223q0 -148 139 -149 q96 -1 250 131q159 136 267 315q114 189 114 336q0 111 -88 111q-101 0 -217 -77q-151 -102 -264 -306q18 93 100 239q-113 -123 -201 -288q-100 -188 -100 -312z" />
<glyph unicode="&#xfb;" horiz-adv-x="606" d="M6 281q0 149 151 295q147 143 289 143q101 0 101 -55q0 -20 -23 -46q38 -8 51.5 -26t14.5 -68q2 -119 -84 -258l18 -18q32 20 115 79v-67q-29 -38 -86 -90q-37 -19 -115 -16q-129 -153 -229 -154q-82 0 -141 77q-62 80 -62 204zM131 203q0 -66 92 -66q43 0 144 74 q-18 51 -18 99q0 100 104 270q-167 -100 -297 -256q-23 -105 -25 -121z" />
<glyph unicode="&#xfc;" horiz-adv-x="1338" d="M9 283q0 49 14 104q24 92 99 158q71 62 140 62q31 0 54 -15q-57 1 -112 -48t-64 -108q-3 -16 -3 -32q0 -107 116 -168q85 -45 163 -45q8 0 12 1l268 480q-91 2 -160 67q-76 71 -76 180q0 80 44 169q143 288 536 288q63 0 164 -30q126 -38 163 -91q2 -3 2 -11 q0 -42 -40 -132q-43 -96 -77 -108q-20 -7 -55 -8q-24 0 -61 3t-42 3q1 0 34 18q41 22 62 42q-21 14 -86 46q-49 -77 -148 -216q381 -27 381 -382q0 -574 -822 -580q-32 0 -123 10q-41 -71 -87 -71q-9 0 -17 3q-29 10 -29 34q0 22 25 58q-275 105 -275 319zM524 174 q16 -1 54 -4q27 -2 63 -2q310 0 464 101q122 80 124 202q2 99 -75 140q-87 47 -318 49q-30 -27 -312 -486zM587 1024q0 -123 249 -132q7 0 73 122t67 138q-72 30 -170 30q-164 0 -206 -102q-13 -30 -13 -56z" />
<glyph unicode="&#xfd;" horiz-adv-x="891" d="M-26 -351q0 14 8 14q4 -1 9 -3.5t18 -24.5q9 -16 30 -16q19 0 51 11q52 18 119 144q54 102 82 194q-126 29 -203 103q-83 81 -83 194q0 53 19 111q29 88 129 149q84 51 123 43q87 -17 87 -74q0 -52 -78 -124q-43 -40 -84 -40q-24 0 -21 26q31 31 31 45q0 9 -12 9 q-35 0 -79 -42q-40 -38 -40 -73q0 -92 267 -159q22 43 44 87t34 147q4 37 67 164q43 87 87 173q-67 25 -110.5 89t-43.5 139q0 21 4 41q20 110 115 172q78 52 172 52q79 0 100 -36q11 31 74 69q57 36 75 33q66 -10 66 -68q0 -43 -36 -68q-4 -3 -5 -3q-2 1 -2 2q0 2 3 10 t3 12q0 8 -9 7q-8 -1 -77 -70q16 -28 33 -56q19 -34 19 -55q0 -12 -5 -22q-30 70 -58 95q-24 -34 -67 -130q-47 -103 -65 -132q53 -64 106 -127q49 -70 62 -189q2 -22 2 -44q0 -179 -110 -323q-125 -163 -320 -163q-55 0 -114 14q-147 -463 -326 -471q-24 -1 -58 66 q-33 63 -33 98zM441 120q24 -7 70 -7q119 0 208 46q118 61 118 185q0 49 -19 106q-21 66 -64 110q-38 39 -76 77q-16 -22 -73 -182q-17 -58 -85 -187q-39 -74 -79 -148zM591 969q0 -70 75 -99q44 84 126 238q-31 19 -61 19q-46 0 -86 -41q-32 -32 -46 -71q-8 -23 -8 -46z " />
<glyph unicode="&#xfe;" d="M457 1163q-2 76 90 153q37 31 67 32q40 1 41 -54q1 -101 -127 -223q-47 -45 -61 -45q-6 0 -6 6q0 14 22 43.5t23 40.5q0 6 -8 6q-40 0 -41 41z" />
<glyph unicode="&#xff;" d="M457 1163q-2 76 90 153q37 31 67 32q40 1 41 -54q1 -101 -127 -223q-47 -45 -61 -45q-6 0 -6 6q0 14 22 43.5t23 40.5q0 6 -8 6q-40 0 -41 41z" />
<glyph unicode="&#x2000;" horiz-adv-x="770" />
<glyph unicode="&#x2001;" horiz-adv-x="1541" />
<glyph unicode="&#x2002;" horiz-adv-x="770" />
<glyph unicode="&#x2003;" horiz-adv-x="1541" />
<glyph unicode="&#x2004;" horiz-adv-x="513" />
<glyph unicode="&#x2005;" horiz-adv-x="385" />
<glyph unicode="&#x2006;" horiz-adv-x="256" />
<glyph unicode="&#x2007;" horiz-adv-x="256" />
<glyph unicode="&#x2008;" horiz-adv-x="192" />
<glyph unicode="&#x2009;" horiz-adv-x="308" />
<glyph unicode="&#x200a;" horiz-adv-x="85" />
<glyph unicode="&#x2010;" horiz-adv-x="1044" d="M242 455q0 20 53 75q65 67 246 68q33 0 147 -10q19 4 41 8q5 0 53 -8q9 -1 26 -4q10 -2 19 -5.5t9 -7.5q0 -9 -54 -55q-49 -42 -108 -59q-38 -11 -122 -19q-74 -7 -196 -8q-112 -1 -114 25z" />
<glyph unicode="&#x2011;" horiz-adv-x="1044" d="M242 455q0 20 53 75q65 67 246 68q33 0 147 -10q19 4 41 8q5 0 53 -8q9 -1 26 -4q10 -2 19 -5.5t9 -7.5q0 -9 -54 -55q-49 -42 -108 -59q-38 -11 -122 -19q-74 -7 -196 -8q-112 -1 -114 25z" />
<glyph unicode="&#x2012;" horiz-adv-x="1044" d="M242 455q0 20 53 75q65 67 246 68q33 0 147 -10q19 4 41 8q5 0 53 -8q9 -1 26 -4q10 -2 19 -5.5t9 -7.5q0 -9 -54 -55q-49 -42 -108 -59q-38 -11 -122 -19q-74 -7 -196 -8q-112 -1 -114 25z" />
<glyph unicode="&#x2013;" horiz-adv-x="1474" d="M242 455q0 20 91 75q112 67 424 68q57 0 254 -10q33 4 71 8q8 0 91 -8q15 -1 45 -4q17 -2 32.5 -5.5t15.5 -7.5q0 -9 -93 -55q-85 -42 -186 -59q-66 -11 -211 -19q-127 -7 -337 -8q-194 -1 -197 25z" />
<glyph unicode="&#x2014;" horiz-adv-x="2498" d="M242 455q0 20 183 75q224 67 848 68q114 0 507 -10q65 4 141 8q17 0 183 -8q31 -1 89 -4q35 -2 66 -5.5t31 -7.5q0 -9 -186 -55q-169 -42 -373 -59q-131 -11 -420 -19q-255 -7 -676 -8q-386 -1 -393 25z" />
<glyph unicode="&#x202f;" horiz-adv-x="308" />
<glyph unicode="&#x205f;" horiz-adv-x="385" />
<glyph unicode="&#x25fc;" horiz-adv-x="760" d="M0 0v760h760v-760h-760z" />
</font>
</defs>
</svg>
